<?xml version="1.0" standalone="no"?>
<!DOCTYPE svg PUBLIC "-//W3C//DTD SVG 1.1//EN" "http://www.w3.org/Graphics/SVG/1.1/DTD/svg11.dtd" >
<svg xmlns="http://www.w3.org/2000/svg">
<metadata>
This is a custom SVG webfont generated by Font Squirrel.
Copyright   : Copyright c 2011 by Sorkin Type Co with Reserved Font Names Emblema and Emblema One
Designer    : Riccardo De Franceschi
Foundry     : Riccardo De Franceschi
Foundry URL : wwwsorkintypecom
</metadata>
<defs>
<font id="EmblemaOneRegular" horiz-adv-x="1365" >
<font-face units-per-em="2048" ascent="1638" descent="-410" />
<missing-glyph horiz-adv-x="684" />
<glyph horiz-adv-x="0" />
<glyph unicode=" "  horiz-adv-x="684" />
<glyph unicode="&#x09;" horiz-adv-x="684" />
<glyph unicode="&#xa0;" horiz-adv-x="684" />
<glyph unicode="!" horiz-adv-x="856" d="M486 417l-223 -11q33 246 33 755q0 71 5 122q0 13 32.5 38.5t54.5 26.5l409 15q-150 -537 -224 -880q0 -14 -31.5 -39.5t-55.5 -26.5zM174 230q85 83 226 83q101 0 160 -42.5t59 -113.5t-79.5 -124t-185.5 -53t-165.5 42t-59.5 103t45 105z" />
<glyph unicode="&#x22;" horiz-adv-x="853" d="M324 932h-150q19 154 24 382q0 14 32 40.5t55 26.5h217q-47 -182 -91 -383q-5 -21 -33.5 -43.5t-53.5 -22.5zM694 932h-150q19 154 24 382q0 14 32 40.5t55 26.5h217q-47 -182 -91 -383q-5 -21 -33.5 -43.5t-53.5 -22.5z" />
<glyph unicode="#" d="M1113 1289q-55 -172 -107 -346q92 3 181 6v-64q0 -25 -22.5 -56.5t-35.5 -31.5q-82 0 -166 -1q-36 -124 -70 -249q119 3 235 7v-64q0 -25 -22.5 -56.5t-35.5 -31.5q-107 0 -217 -1q-46 -170 -89 -342q0 -13 -31.5 -35.5t-56.5 -22.5h-75q62 197 122 398q-121 -1 -245 -4 q-44 -167 -87 -336q0 -13 -31.5 -35.5t-56.5 -22.5h-75q61 193 119 391q-84 -3 -169 -5v64q0 25 22.5 56t35.5 32h154q36 124 70 249q-110 -3 -223 -6v64q0 25 22.5 56t35.5 32h205q39 148 77 297q0 13 31.5 35.5t56.5 22.5h75q-56 -175 -109 -353q124 1 243 4 q39 144 76 291q0 13 31.5 35.5t56.5 22.5h75zM518 540q125 1 247 4q36 125 70 251q-121 -1 -246 -4q-36 -125 -71 -251z" />
<glyph unicode="$" d="M227 953q0 165 127 287.5t320 151.5q13 116 24 231q0 13 31.5 34.5t55.5 21.5h41q-24 -95 -56 -280q-79 -67 -79 -162.5t52.5 -191t122.5 -162.5t108.5 -106.5t87 -95t76.5 -99.5q69 -107 69 -195q0 -137 -110 -250t-299 -144q-21 -176 -29 -267q0 -13 -31.5 -35.5 t-56.5 -22.5h-32q32 133 62 316q32 46 32 96.5t-21 103t-64 112.5q-69 97 -154.5 190t-119 133t-75.5 101q-82 118 -82 233zM264 574q23 -110 82.5 -221t135 -187.5t142.5 -94.5q-12 -68 -37 -91q-23 -199 -28 -260q0 -13 -31.5 -35.5t-56.5 -22.5h-32q30 124 62 320l-2 2 q-107 9 -211.5 33.5t-156.5 58.5q-1 22 -1 63q0 195 46 370q4 16 34 40.5t54 24.5zM1103 795q0 97 -35 200q-69 201 -230 324q1 13 21.5 32.5t42.5 29.5q17 143 27 258q0 13 31.5 34.5t55.5 21.5h41q-27 -109 -63 -314q131 -21 256 -79q5 -30 5 -104.5t-14 -186t-34 -176.5 q-6 -15 -42.5 -27.5t-61.5 -12.5z" />
<glyph unicode="%" d="M288 41q-14 -18 -39.5 -38t-48.5 -20h-112q546 705 989 1321q14 19 39.5 38.5t48.5 19.5h112q-438 -572 -989 -1321zM370 790q-86 0 -142 66.5t-56 159.5t35 170t101.5 126t150.5 49t140 -66.5t56 -183.5t-80.5 -219t-204.5 -102zM427 1234q-52 0 -92.5 -57.5t-40.5 -123 t27.5 -101t79 -35.5t92 57t40.5 122.5t-27 101.5t-79 36zM900 -10q-86 0 -142 66.5t-56 159.5t35 170t101.5 126t150.5 49t140 -66.5t56 -183.5t-80.5 -219t-204.5 -102zM957 434q-52 0 -92.5 -57.5t-40.5 -123t27.5 -101t79 -35.5t92 57t40.5 122.5t-27 101.5t-79 36z" />
<glyph unicode="&#x26;" horiz-adv-x="1535" d="M502 -14q-205 0 -320 66t-115 191q0 168 187 266q97 51 206 66q-67 -139 -67 -245q0 -196 196 -276q0 -15 -32 -41.5t-55 -26.5zM1458 69q0 -13 -32 -39t-55 -26h-558q-107 252 -260 500q-141 229 -171 313.5t-30 154.5q0 152 121 266.5t317 135.5q-25 -51 -25 -138.5 t53 -225t129.5 -265t176.5 -265.5q165 -227 334 -411zM1102 772q0 99 -31 201q-59 194 -222 319q3 19 34.5 43t54.5 24q72 0 169 -28.5t155 -54.5q5 -32 5 -106.5t-14 -184.5t-35 -173q-4 -13 -46.5 -26.5t-69.5 -13.5z" />
<glyph unicode="'" horiz-adv-x="453" d="M313 932h-150q19 154 24 382q0 14 32 40.5t55 26.5h217q-47 -182 -91 -383q-5 -21 -33.5 -43.5t-53.5 -22.5z" />
<glyph unicode="(" horiz-adv-x="539" d="M548 1528l49 -16q-207 -534 -207 -1101q0 -329 75 -607l-54 -21q-140 149 -221 349.5t-81 400.5q0 309 110.5 553t328.5 442z" />
<glyph unicode=")" horiz-adv-x="539" d="M21 -219l-49 16q207 534 207 1101q0 329 -75 607l54 21q140 -149 221 -349.5t81 -400.5q0 -309 -110.5 -553t-328.5 -442z" />
<glyph unicode="*" horiz-adv-x="1089" d="M617 983l-56 15q-14 191 -48 308q2 11 37.5 27.5t52.5 16.5t21 -1l113 -30q24 -7 49 -42.5t25 -50.5q-84 -79 -194 -243zM332 1240l7 -1q52 -108 171 -260l-31 -49q-184 45 -308 49q-16 11 -16 58t10 61l63 98q12 19 46 31t58 13zM481 876l37 -45q-99 -160 -142 -277 q-5 -4 -25.5 -4t-49 9.5t-40.5 24.5l-74 91q-15 18 -15 65.5t9 53.5q119 15 300 82zM845 618l1 -6q0 -18 -22 -52t-43 -42l-110 -42q-9 -3 -28.5 -3t-51 12t-35.5 23q18 94 18 165.5t-2 143.5l52 21q125 -145 221 -220zM654 884l-4 58q174 70 278 141q16 -5 45 -35t31 -57 l7 -118q0 -24 -26 -61.5t-39 -37.5q-104 57 -292 110z" />
<glyph unicode="+" d="M1099 442q-232 12 -364 13q-18 -132 -48 -417q0 -13 -31.5 -35.5t-56.5 -22.5h-72q64 406 73 475q-130 -4 -393 -28v72q0 25 22.5 56t35.5 32q206 -11 351 -14q8 63 46 399q0 13 31.5 35.5t56.5 22.5h72q-41 -253 -71 -457q115 3 406 29v-72q0 -25 -22.5 -56.5 t-35.5 -31.5z" />
<glyph unicode="," horiz-adv-x="682" d="M74 219q77 84 206 84t187.5 -58t58.5 -139.5t-28 -157t-71 -128.5q-97 -119 -191 -119q-43 0 -110 37t-105 73q91 12 163.5 55.5t109.5 105.5q-21 -3 -41 -3q-102 0 -161 42t-59 103t41 105z" />
<glyph unicode="-" d="M1099 447q-425 0 -892 -15v64q0 25 22.5 56t35.5 32q474 0 892 15v-64q0 -25 -22.5 -56.5t-35.5 -31.5z" />
<glyph unicode="." horiz-adv-x="682" d="M78 219q84 84 224 84q101 0 160.5 -43t59.5 -113.5t-79.5 -124t-185.5 -53.5t-165 42t-59 103t45 105z" />
<glyph unicode="/" horiz-adv-x="736" d="M90 -161q0 -13 -31.5 -35.5t-56.5 -22.5h-82q416 873 749 1630q0 13 31.5 35.5t56.5 22.5h82q-416 -873 -749 -1630z" />
<glyph unicode="0" horiz-adv-x="1463" d="M642 -20q91 83 148 228q100 252 100 633q0 223 -31 442q0 14 32.5 40.5t56.5 26.5q131 -38 224 -133q177 -182 177 -479q0 -235 -112 -426q-122 -210 -328 -290q-112 -43 -241 -43q-4 0 -13 0.5t-13 0.5zM821 1373q-91 -83 -149 -229q-102 -252 -102 -634q0 -220 33 -439 q0 -14 -32 -40.5t-56 -26.5q-131 38 -223 133q-178 182 -178 479q0 234 112 426q121 207 328 288q111 43 241 43h26z" />
<glyph unicode="1" horiz-adv-x="1025" d="M353 1237q-8 -97 -44 -217h-189q12 88 34 138q112 35 199 79zM192 4q209 864 279 1279q0 13 32.5 39t54.5 26h360q-142 -599 -196 -1279q0 -13 -32 -39t-55 -26h-443z" />
<glyph unicode="2" d="M517 4h-413q-18 57 -18 126.5t39.5 155t102.5 160t139.5 150t152.5 148.5t139 144q142 160 142 297q0 45 -18 87q1 14 32.5 39t54.5 26q213 -38 320 -177q57 -74 57 -148.5t-35.5 -143.5t-92.5 -134t-125.5 -132.5t-137 -133.5t-125.5 -128.5t-92.5 -127.5t-35.5 -100.5 t0.5 -45t-31.5 -36t-55 -26.5zM200 849q21 217 83 405q9 20 34 43.5t47 29.5q180 41 403 46q-139 -70 -252 -183t-228 -276q-14 -19 -40.5 -42t-46.5 -23zM1092 396q11 17 38.5 41t49.5 24q-35 -279 -64 -385q-9 -21 -36 -46.5t-45 -25.5h-368q262 175 425 392z" />
<glyph unicode="3" d="M493 -4q107 60 173 157.5t66 234.5q0 123 -86 198q-73 64 -208 70q-2 12 -2 40t16 55q103 0 185.5 53.5t124.5 135.5t42 185.5t-77 168.5q0 15 34 41.5t58 26.5q151 0 282 -72q64 -36 104.5 -96.5t40.5 -133t-35.5 -131.5t-92 -98t-132.5 -67q-135 -51 -307 -62 q227 0 356 -60q125 -57 166 -146q25 -53 25 -128t-32 -142.5t-86.5 -112.5t-128.5 -75.5t-154.5 -44t-168.5 -13.5t-163 16zM237 517q39 -162 92 -268t150 -164q-2 -17 -48 -48.5t-68 -31.5q-71 7 -153 32.5t-118 46.5q34 284 52 386q43 35 93 47zM196 848q24 229 85 406 q10 18 34.5 43t45.5 30q197 43 335 46q-108 -77 -200.5 -184t-211.5 -275q-13 -19 -40 -42.5t-48 -23.5z" />
<glyph unicode="4" horiz-adv-x="1364" d="M1293 389q-1 -24 -15 -84t-23 -81h-171q-6 -53 -14 -155q0 -13 -32 -39t-55 -26h-443q139 591 196 1279q0 13 32.5 39t54.5 26h443q-100 -417 -166 -959h193zM492 224h-389q-26 59 -46 160q93 98 297.5 378.5t298.5 439.5q-149 -454 -392 -813h291q0 -25 -29.5 -94 t-30.5 -71z" />
<glyph unicode="5" d="M226 488q120 -311 283 -419q-3 -18 -34.5 -42.5t-53.5 -24.5q-167 19 -319 84q23 195 52 357q25 23 72 45zM548 -14q223 203 223 395q0 135 -125 218.5t-364 83.5q-43 0 -88 -3q110 418 185 591q8 19 37.5 48t48.5 29h283q-121 -238 -140 -577q44 4 110 4t138.5 -9.5 t143.5 -34t120 -63.5q112 -86 112 -245q0 -245 -264 -371q-150 -72 -328 -72q-57 0 -92 6zM1091 896q-39 153 -95.5 231t-175.5 141q7 43 30 80h396q-8 -189 -68 -386q-6 -18 -35 -42t-52 -24z" />
<glyph unicode="6" d="M1133 1362q-133 -56 -243.5 -159t-183.5 -231q-152 -269 -152 -573q0 -176 54 -328q-1 -14 -34.5 -40.5t-56.5 -26.5q-188 37 -295.5 183t-107.5 353q0 146 49 278t135 232t199 174q230 149 515 149q66 0 121 -11zM667 685q52 67 131 102.5t165 35.5q136 0 230 -82.5 t94 -222.5t-56 -243t-150 -166q-192 -129 -454 -129q68 20 132.5 103.5t103 193.5t38.5 207q0 206 -177 206q-24 0 -57 -5z" />
<glyph unicode="7" d="M947 1283q7 15 36.5 40t52.5 25h230q0 -198 -90 -399q-61 -134 -148 -284t-128 -227q-90 -174 -90 -313q0 -18 4 -56q0 -13 -32.5 -39t-55.5 -26h-469q-8 38 -8 76q0 203 191 476q86 121 176 238q250 321 331 489zM278 868q-39 -33 -121 -33q38 309 73 442 q9 20 36.5 45.5t44.5 25.5h632q-278 -59 -444 -216q-103 -96 -221 -264z" />
<glyph unicode="8" d="M799 1368q-190 -132 -190 -270q0 -92 78 -156q64 -52 177 -108q46 49 61.5 97t15.5 115q0 165 -105 237q0 14 32 40.5t56 26.5q123 -8 222 -78q108 -75 108 -204q0 -97 -77 -180.5t-203 -110.5q164 -87 226 -175q58 -83 58 -181t-36 -172.5t-95.5 -123.5t-138.5 -83 q-147 -62 -330 -62q-46 0 -82 6q107 45 171 114.5t64 153.5q0 86 -99 161q-43 33 -82.5 55t-76 43t-57.5 33q-65 -98 -65 -250.5t105 -224.5q-1 -20 -33 -43.5t-54 -23.5q-144 10 -253 80q-121 77 -121 229q0 109 81 196t223 112q-85 65 -134 140.5t-49 175.5t44.5 184 t118.5 138q156 114 359 114q34 0 81 -5z" />
<glyph unicode="9" d="M232 -25q133 56 243.5 159t182.5 231q153 269 153 573q0 176 -54 328q1 14 34.5 40.5t56.5 26.5q188 -37 295.5 -183t107.5 -353q0 -146 -49 -278t-135 -232t-199 -173q-230 -150 -515 -150q-66 0 -121 11zM698 652q-52 -67 -131 -102.5t-165 -35.5q-136 0 -230 82.5 t-94 222.5t56 243t150 166q192 129 454 129q-68 -20 -132.5 -103.5t-103 -193.5t-38.5 -207q0 -206 177 -206q24 0 57 5z" />
<glyph unicode=":" horiz-adv-x="682" d="M78 219q84 84 224 84q101 0 160.5 -43t59.5 -113.5t-79.5 -124t-185.5 -53.5t-165 42t-59 103t45 105zM188 939q84 84 224 84q101 0 160.5 -43t59.5 -113.5t-79.5 -124t-185.5 -53.5t-165 42t-59 103t45 105z" />
<glyph unicode=";" horiz-adv-x="682" d="M188 939q84 84 224 84q101 0 160.5 -43t59.5 -113.5t-79.5 -124t-185.5 -53.5t-165 42t-59 103t45 105zM74 219q77 84 206 84t187.5 -58t58.5 -139.5t-28 -157t-71 -128.5q-97 -119 -191 -119q-43 0 -110 37t-105 73q91 12 163.5 55.5t109.5 105.5q-21 -3 -41 -3 q-102 0 -161 42t-59 103t41 105z" />
<glyph unicode="&#x3c;" d="M985 86q-361 205 -761 392q0 97 14 162q271 108 445 185t458 215v-107q0 -22 -25.5 -52t-40.5 -36q-362 -146 -675 -286q305 -176 651 -330v-55q0 -22 -25.5 -51.5t-40.5 -36.5z" />
<glyph unicode="=" d="M1079 247q-425 0 -892 -15v64q0 25 22.5 56t35.5 32q474 0 892 15v-64q0 -25 -22.5 -56.5t-35.5 -31.5zM1120 707q-425 0 -892 -15v64q0 25 22.5 56t35.5 32q474 0 892 15v-64q0 -25 -22.5 -56.5t-35.5 -31.5z" />
<glyph unicode="&#x3e;" d="M380 1040q361 -205 761 -392q0 -97 -14 -162q-271 -108 -445 -185t-458 -215v107q0 22 25.5 52t40.5 36q362 146 675 286q-305 176 -651 330v55q0 22 25.5 51.5t40.5 36.5z" />
<glyph unicode="?" horiz-adv-x="1197" d="M731 460q-15 -22 -43 -42.5t-45 -21.5l-325 -12q22 164 109 290q56 81 134.5 169t113.5 135q77 105 77 220q0 47 -18 86q1 14 32.5 39t54.5 27q179 -23 280 -105t101 -207q0 -109 -126 -222q-56 -51 -116 -101q-159 -131 -229 -255zM131 838q29 278 72 404q12 19 36 43 t46 31q184 55 447 57q-258 -130 -490 -459q-11 -16 -50.5 -46t-60.5 -30zM262 230q86 83 226 83q101 0 160.5 -42.5t59.5 -113t-80 -124t-186 -53.5t-165 42t-59 103t44 105z" />
<glyph unicode="@" horiz-adv-x="2211" d="M1422 0q-272 0 -272 139q0 70 45 384.5t46 416.5q0 13 33 39t55 26q214 0 403 -57q-11 -59 -46 -232q-70 -344 -70 -473q0 -81 65 -81q108 0 185 103q85 115 85 366q0 289 -195 440t-590 151q-285 0 -510 -132q-244 -145 -336 -389q-50 -133 -50 -287q0 -614 893 -614 q175 0 365 45t327 106q-12 -95 -52 -151q-301 -108 -691 -108q-729 0 -908 439q-51 125 -51 308.5t81.5 358.5t220.5 291.5t324.5 181t397 64.5t375 -41t280.5 -127q238 -174 238 -554q0 -613 -648 -613zM1157 1019q-119 -88 -180.5 -239t-61.5 -296.5t32.5 -261 t87.5 -154.5q0 -15 -32 -41.5t-55 -26.5q-229 0 -367.5 115t-138.5 314q0 247 188 415q89 81 225.5 128t301.5 47z" />
<glyph unicode="A" d="M1163 0h-465q-78 622 -197 1080q58 118 99 216q7 15 36.5 40t50.5 25h318q41 -302 110.5 -672.5t135.5 -622.5q0 -13 -32 -39.5t-56 -26.5zM364 177l3 -111q0 -13 -32.5 -39.5t-55.5 -26.5h-319q158 268 490 982q9 -26 9 -72.5t-13.5 -134.5t-34.5 -207.5t-31 -193.5 q144 -22 209 -49q0 -60 -20 -89q-104 -9 -205 -27v-32z" />
<glyph unicode="B" horiz-adv-x="1535" d="M103 4q132 531 195 1281q0 12 32 37.5t55 26.5q300 25 457 25q-143 -616 -197 -1315q0 -14 -32 -40.5t-56 -26.5q-174 0 -454 12zM701 -2q110 39 193 164.5t83 252.5q0 172 -158 237q-16 10 -16 33q0 54 32 63q71 19 121 126.5t50 239t-84 193.5q0 15 34 42t58 27 q318 -21 410 -200q28 -54 28 -123t-34.5 -128t-88 -98.5t-125.5 -69.5q-130 -54 -276 -69q60 4 98 4q190 0 298 -79.5t108 -226.5q0 -85 -36.5 -155t-95 -115.5t-136.5 -77.5q-143 -58 -317 -58q-76 0 -146 18z" />
<glyph unicode="C" horiz-adv-x="1535" d="M1263 755q-38 186 -88 309.5t-144 230.5q2 18 34 42t54 24q174 -19 324 -72q-2 -58 -25 -216t-45 -251q-4 -16 -45 -41.5t-65 -25.5zM1356 505q-19 -207 -63 -414q-56 -50 -184 -80.5t-293 -30.5q145 104 232.5 208.5t177.5 259.5q22 22 63.5 39.5t66.5 17.5zM754 48 q0 -15 -32 -41.5t-56 -26.5q-215 39 -365 196q-73 77 -115.5 184.5t-42.5 229t30 235t94.5 216t156.5 179.5q198 167 509 167q24 0 38 -1q-146 -126 -228.5 -363.5t-82.5 -513t94 -461.5z" />
<glyph unicode="D" horiz-adv-x="1705" d="M746 -20q88 63 163 206t118.5 325t43.5 357q0 277 -108 439q0 15 32 42t55 27q108 0 205.5 -44.5t169.5 -123.5t114.5 -195.5t42.5 -244.5t-31.5 -240t-99 -212t-164 -174.5t-236 -118t-305.5 -43.5zM597 -8q-172 0 -454 12q135 543 195 1281q0 12 32.5 37t55.5 27 q298 25 456 25q-141 -608 -197 -1315q0 -14 -32 -40.5t-56 -26.5z" />
<glyph unicode="E" horiz-adv-x="1364" d="M718 692q238 -26 348 -59q0 -55 -23 -81q-164 -10 -352 -52q-27 -210 -45 -434q0 -13 -32 -39.5t-55 -26.5h-466q134 485 198 1296q0 13 33 39t56 26h464q-76 -330 -126 -669zM1148 755q-24 151 -91 301t-135 225q5 48 29 80h363q-7 -97 -30 -260.5t-49 -278.5 q-4 -17 -34 -42t-53 -25zM1102 411q11 14 50 40t61 26q-34 -297 -64 -405q-9 -20 -36 -46t-44 -26h-367q246 165 400 411z" />
<glyph unicode="F" d="M559 0h-466q134 485 198 1296q0 13 33 39t56 26h464q-77 -325 -129 -693q78 -7 197.5 -26t163.5 -33q0 -57 -21 -82q-192 -12 -368 -56q-21 -171 -41 -405q0 -13 -32 -39.5t-55 -26.5zM1148 755q-24 151 -91 301t-135 225q5 48 29 80h363q-7 -97 -30 -260.5t-49 -278.5 q-4 -17 -34 -42t-53 -25z" />
<glyph unicode="G" horiz-adv-x="1535" d="M832 523q3 25 18.5 57.5t34.5 33.5q220 11 518 11q-29 -298 -80 -511q-12 -16 -50 -45.5t-54 -37.5q-57 -17 -174 -34t-229 -17q76 41 158.5 167.5t82.5 196t-73 124.5t-152 55zM1263 755q-38 186 -88 309.5t-144 230.5q2 18 34 42t54 24q175 -19 325 -72 q-2 -57 -25.5 -215t-45.5 -252q-4 -16 -44.5 -41.5t-65.5 -25.5zM754 48q0 -15 -31.5 -41.5t-56.5 -26.5q-215 39 -365 196q-73 77 -115.5 184.5t-42.5 229t30 235t94.5 216t156 179.5t223 122t287.5 45q23 0 37 -1q-146 -126 -228 -363.5t-82 -512t93 -462.5z" />
<glyph unicode="H" horiz-adv-x="1707" d="M588 0h-455q141 606 196 1296q0 13 32.5 39t55.5 26h454q-73 -308 -124 -660q138 -27 177 -42q0 -62 -23 -91q-103 -8 -176 -23q-31 -244 -50 -479q0 -13 -32 -39.5t-55 -26.5zM1331 0h-454q139 595 196 1296q0 13 32 39t55 26h454q-139 -592 -196 -1295 q0 -13 -32.5 -39.5t-54.5 -26.5z" />
<glyph unicode="I" horiz-adv-x="852" d="M537 0h-465q138 597 195 1296q0 13 32.5 39t55.5 26h465q-139 -592 -196 -1295q0 -13 -32 -39.5t-55 -26.5z" />
<glyph unicode="J" horiz-adv-x="1195" d="M480 -20q24 175 29 403.5t13.5 465t41.5 446.5q0 14 32.5 40t54.5 26h466q-72 -305 -91 -491t-30 -294t-21 -180t-31 -140.5t-53 -111t-87 -78.5q-96 -64 -324 -86zM74 351q3 15 34.5 40.5t52.5 25.5q43 -119 100.5 -202t147.5 -143q-3 -53 -18 -92q-179 0 -358 76 q3 130 41 295z" />
<glyph unicode="K" horiz-adv-x="1535" d="M566 0h-453q134 540 196 1295q0 14 32.5 40t54.5 26h455q-142 -603 -196 -1294q0 -14 -32.5 -40.5t-56.5 -26.5zM1381 493l-14 -245q0 -54 20 -87t74 -41q-10 -63 -33 -103q-181 -42 -332 -42q-236 0 -236 168q0 64 22.5 188.5t22.5 171.5q0 125 -89 135q39 133 311 657 q9 18 37 42t51 24h366q-270 -384 -570 -644q43 3 82 3q153 0 220.5 -56.5t67.5 -170.5z" />
<glyph unicode="L" d="M599 0h-466q134 485 198 1296q0 13 33 39t56 26h464q-142 -605 -198 -1294q0 -13 -32 -40t-55 -27zM1134 501q15 29 57 52t77 23q-49 -428 -71 -503q-9 -21 -36 -47t-44 -26h-385q119 89 224 222.5t178 278.5z" />
<glyph unicode="M" horiz-adv-x="1705" d="M1494 0h-441q6 246 6 501t-25 579q34 71 95 216q7 16 36 40.5t51 24.5h306q-7 -132 -7 -293q0 -504 67 -1002q0 -13 -32 -39.5t-56 -26.5zM808 52q-7 -15 -31 -33.5t-38 -18.5h-159q-42 249 -109 524t-133 453q4 23 26.5 140.5t31.5 178.5q3 14 34 39.5t53 25.5h291 q69 -400 114.5 -540.5t83.5 -224.5q-96 -287 -164 -544zM316 723q5 -250 18.5 -382t58.5 -275q0 -13 -32.5 -39.5t-56.5 -26.5h-319q99 236 155 382.5t89 275.5q0 13 32 39t55 26z" />
<glyph unicode="N" horiz-adv-x="1535" d="M1263 66q0 -13 -32 -39.5t-55 -26.5h-258q-113 205 -301.5 467t-343.5 439q13 107 40 390q3 14 34.5 39.5t52.5 25.5h261q133 -234 284.5 -443t353.5 -456q-26 -240 -36 -396zM1246 637q-48 247 -87.5 388.5t-106.5 270.5q0 13 32.5 39t56.5 26h318q-67 -289 -125 -657 q0 -14 -32 -40.5t-56 -26.5zM327 711q26 -210 71 -351.5t125 -293.5q0 -13 -32 -39.5t-56 -26.5h-318q67 291 122 645q0 13 32.5 39.5t55.5 26.5z" />
<glyph unicode="O" horiz-adv-x="1535" d="M689 -20q146 122 217.5 356t71.5 492.5t-53 467.5q0 14 32.5 40.5t55.5 26.5q145 -28 247 -121q194 -177 194 -491q0 -239 -120 -431q-133 -215 -366 -296q-128 -44 -279 -44zM888 1387q-147 -123 -219 -356t-72 -493t55 -466q0 -14 -32.5 -41t-56.5 -27 q-220 44 -333 220q-108 169 -108 391q0 239 120 433q132 213 366 294q128 45 280 45z" />
<glyph unicode="P" horiz-adv-x="1535" d="M805 459q102 110 159.5 248t57.5 294.5t-82 306.5q0 14 32.5 41t55.5 27q221 -15 346 -129.5t125 -292.5q0 -110 -51.5 -206t-135.5 -160q-182 -136 -415 -136q-57 0 -92 7zM675 67q0 -14 -32 -40.5t-56 -26.5h-454q137 552 195 1285q0 13 32 38.5t55 26.5q320 24 458 24 q-143 -613 -198 -1307z" />
<glyph unicode="Q" horiz-adv-x="1535" d="M619 -138l339 -7q139 0 337 41q16 -36 20 -71q-76 -145 -156.5 -211t-190.5 -66q-117 0 -316 82q-204 85 -381 100q6 53 30 86q132 46 318 46zM689 -36q146 122 217.5 356t71.5 492.5t-53 467.5q0 14 32.5 40.5t55.5 26.5q145 -28 247 -121q194 -177 194 -491 q0 -239 -120 -431q-133 -215 -366 -296q-128 -44 -279 -44zM888 1371q-147 -123 -219 -356t-72 -493t55 -466q0 -14 -32.5 -41t-56.5 -27q-220 44 -333 220q-108 169 -108 391q0 239 120 433q132 213 366 294q128 45 280 45z" />
<glyph unicode="R" horiz-adv-x="1535" d="M645 66q0 -13 -32 -39.5t-56 -26.5h-454q137 552 195 1285q0 12 32 37.5t55 26.5q300 25 458 25q-144 -622 -198 -1308zM1371 450l-14 -201q0 -55 20 -88t74 -41q-10 -63 -33 -103q-179 -42 -304.5 -42t-194 34.5t-68.5 107.5t22.5 199.5t22.5 180t-24 89.5t-65 40 q5 45 34 80q84 44 131 137t47 201q0 162 -97 263q0 15 32 42t55 27q179 0 310 -74q66 -38 105 -104t39 -152q0 -141 -129 -240t-345 -114l90 -8q132 -13 212 -69.5t80 -164.5z" />
<glyph unicode="S" d="M780 1399q-79 -67 -79 -162.5t52.5 -191t122.5 -162.5t108.5 -106.5t87 -95t76.5 -99.5q69 -107 69 -187.5t-33.5 -149.5t-95 -125.5t-157 -93.5t-210.5 -42q32 46 32 96.5t-21 103t-64 112.5q-69 97 -154.5 190t-119 133t-75.5 101q-82 118 -82 237t73 221t197.5 161 t272.5 60zM1113 795q0 97 -35 200q-69 201 -230 324q2 18 34 43t53 25q73 0 170.5 -29t154.5 -56q5 -30 5 -104.5t-14 -186t-34 -176.5q-6 -15 -42.5 -27.5t-61.5 -12.5zM634 71q-12 -68 -37 -91q-105 0 -248 27t-208 69q-1 22 -1 63q0 195 46 370q4 16 34 40.5t54 24.5 q23 -110 82.5 -221t135 -187.5t142.5 -94.5z" />
<glyph unicode="T" horiz-adv-x="1535" d="M866 0h-466q147 531 209 1296q0 13 32.5 39t54.5 26h446q-129 -543 -188 -1295q0 -13 -32 -39.5t-56 -26.5zM1334 735q0 137 -43.5 304t-93.5 242q6 46 30 80h311q-32 -301 -85 -560q-4 -15 -48.5 -40.5t-70.5 -25.5zM116 736q8 117 38 307.5t45 246.5q7 20 34.5 45.5 t45.5 25.5h304q-102 -122 -156.5 -225t-105 -199.5t-77.5 -146.5q-6 -11 -55.5 -32.5t-72.5 -21.5z" />
<glyph unicode="U" horiz-adv-x="1535" d="M1268 335q-29 -148 -140 -247q-122 -108 -338 -108q-385 0 -508 197q-69 109 -69 282q0 114 46 398t46 438q0 14 32 40t55 26h477q-156 -726 -156 -978q0 -241 237 -241q92 0 179 53.5t139 139.5zM1200 390q0 300 -32.5 511.5t-119.5 393.5q0 14 32 40t55 26h338 q-117 -530 -186 -904q-3 -15 -33.5 -41t-53.5 -26z" />
<glyph unicode="V" d="M398 0q-110 667 -269 1296q0 13 32 39t56 26h476q37 -340 71 -500t58 -250q52 -195 113 -195q17 0 34 11q-64 -126 -166 -361q-7 -15 -36.5 -40.5t-51.5 -25.5h-317zM1039 1182l-3 114q0 13 32.5 39t55.5 26h320q-121 -204 -404 -793q-7 -16 -36 -40.5t-51 -24.5 q86 315 86 679z" />
<glyph unicode="W" horiz-adv-x="2045" d="M951 1361h441q4 -39 11.5 -131t15 -169.5t18.5 -178t25 -178t31 -146.5q36 -146 91 -146q18 0 38 15q-75 -147 -166 -361q-7 -15 -36.5 -40.5t-51.5 -25.5h-293q-22 292 -82.5 661t-129.5 635q0 13 32 39t56 26zM1692 1182l-3 114q0 13 32.5 39t56.5 26h318 q-116 -195 -403 -793q-7 -16 -36 -40.5t-52 -24.5q87 314 87 679zM236 1361h442q57 -555 112.5 -752t112.5 -197q20 0 39 15q-64 -126 -166 -361q-7 -15 -36.5 -40.5t-50.5 -25.5h-294q-41 302 -110.5 672.5t-135.5 623.5q0 13 32 39t55 26z" />
<glyph unicode="X" horiz-adv-x="1367" d="M655 0q-201 690 -484 1296q0 13 32.5 39t55.5 26h512q114 -390 219 -673.5t264 -621.5q0 -13 -32 -39.5t-55 -26.5h-512zM1044 721q57 189 57 328q0 66 -12 116.5t-42 130.5q0 13 32.5 39t55.5 26h319q-119 -182 -195 -312t-128 -260q-6 -16 -35 -42t-52 -26zM384 644 q-57 -183 -57 -309t54 -269q0 -13 -32.5 -39.5t-55.5 -26.5h-320q235 361 323 578q6 16 35.5 41t52.5 25z" />
<glyph unicode="Y" d="M771 0h-442q37 189 55 351q-83 441 -231 945q0 13 31.5 39t55.5 26h465q50 -516 204 -968q-30 -138 -49 -327q0 -13 -32.5 -39.5t-56.5 -26.5zM1010 608q-8 -17 -36.5 -42t-50.5 -25q92 341 92 674q0 54 -2 81q0 13 32.5 39t56.5 26h318q-150 -234 -410 -753z" />
<glyph unicode="Z" d="M165 838q30 286 72 452q8 20 35.5 45.5t45.5 25.5h378q-249 -185 -444 -456q-11 -17 -38.5 -42t-48.5 -25zM1246 527q-30 -278 -71 -455q-9 -20 -36.5 -46t-45.5 -26h-378q243 180 444 462q14 19 40.5 42t46.5 23zM57 66q450 660 733 1295h489q23 0 54 -25.5t34 -39.5 q-23 -38 -94 -154t-90 -147.5t-76.5 -127t-77 -128.5t-66.5 -114t-69 -121l-63 -113q-40 -72 -68 -126.5t-63.5 -123.5t-70.5 -141h-484q-24 0 -56 26.5t-32 39.5z" />
<glyph unicode="[" horiz-adv-x="539" d="M2 -175l258 1668h425l-15 -99l-183 21l-72 -681l-162 -832l190 22l-15 -99h-426z" />
<glyph unicode="\" horiz-adv-x="736" d="M765 -219h-30q-370 841 -746 1630q0 13 31.5 35.5t56.5 22.5h30q370 -841 746 -1630q0 -13 -31.5 -35.5t-56.5 -22.5z" />
<glyph unicode="]" horiz-adv-x="539" d="M551 1490l-258 -1668h-425l15 99l183 -21l72 681l162 832l-190 -22l15 99h426z" />
<glyph unicode="^" d="M319 344h-107q243 503 430 913q31 25 89.5 25t77.5 -23q117 -427 257 -849q-7 -15 -36.5 -40.5t-51.5 -25.5h-55q-114 430 -207 739q-161 -333 -309 -673q-7 -15 -36.5 -40.5t-51.5 -25.5z" />
<glyph unicode="_" horiz-adv-x="1024" d="M-103 -308v93h1171v-93h-1171z" />
<glyph unicode="`" horiz-adv-x="1122" d="M926 1145q-341 39 -566 116q12 62 63 177t91 167q226 -147 461 -355q-15 -62 -49 -105z" />
<glyph unicode="a" horiz-adv-x="1537" d="M1301 40q-195 -42 -419 -42q-51 69 -51 145t45 385.5t46 411.5q0 13 33 39t55 26q214 0 403 -57q-4 -32 -53 -254.5t-49 -357t72 -206.5q0 -14 -28 -46.5t-54 -43.5zM838 1019q-119 -88 -180.5 -239t-61.5 -296.5t32.5 -261t87.5 -154.5q0 -15 -32 -41.5t-55 -26.5 q-229 0 -367.5 115t-138.5 314q0 247 187 415q90 81 226.5 128t301.5 47z" />
<glyph unicode="b" horiz-adv-x="1535" d="M625 68q0 -14 -32 -41t-56 -27h-412q44 188 101.5 628t79.5 690q0 13 32 39.5t55 26.5h421q-53 -220 -110 -634.5t-79 -681.5zM719 8q112 71 172.5 235t60.5 357t-108 352q0 15 31 41t54 26q133 0 242 -54t175 -158.5t66 -241.5q0 -253 -180 -405t-513 -152z" />
<glyph unicode="c" horiz-adv-x="1372" d="M1039 989q115 -24 184.5 -104t69.5 -160.5t-71 -119t-142 -38.5t-142 27q7 94 7 171.5t-13 158.5q3 22 40.5 43.5t66.5 21.5zM870 1016q-104 -80 -172.5 -217t-68.5 -261t30 -198t85 -119q109 -89 283 -89q88 0 188 23q-83 -99 -202 -136t-295 -37t-303.5 53t-204.5 163 t-77 268.5t82 290t219 202.5t302 71q53 0 134 -14z" />
<glyph unicode="d" horiz-adv-x="1537" d="M834 1019q-119 -88 -178.5 -238.5t-59.5 -296.5t32.5 -261.5t87.5 -154.5q0 -15 -32 -41.5t-55 -26.5q-227 0 -366.5 119t-139.5 321q0 242 187 408q89 79 224.5 125t299.5 46zM1293 68q0 -14 -32 -41t-56 -27h-402q44 185 95 609t76 709q0 13 32 39.5t55 26.5h421 q-53 -220 -110 -634.5t-79 -681.5z" />
<glyph unicode="e" d="M1013 994q136 -47 206.5 -131.5t70.5 -180.5q0 -131 -113 -222t-308 -91q-61 0 -134 20q106 66 143 172q32 92 32 216q0 24 -5 147q-1 13 40.5 41t67.5 29zM851 1010q-124 -84 -196.5 -221t-72.5 -293t120 -254t350 -98q63 0 135 11q-47 -74 -181 -123.5t-281 -49.5 t-251 29.5t-185.5 87.5t-128.5 151.5t-47 206t35 203.5t96 156t142 112q161 91 371 91q52 0 94 -9z" />
<glyph unicode="f" horiz-adv-x="1025" d="M785 661q9 145 45 258q86 -39 198 -59q9 -14 15.5 -48.5t6.5 -54.5q-160 -47 -265 -96zM677 744q-39 -251 -75 -678q0 -13 -32 -39.5t-55 -26.5h-420q42 173 86.5 528.5t50.5 397.5q33 233 162.5 350.5t383.5 117.5q202 0 340 -66q11 -42 14 -101q-45 3 -87 3 q-114 0 -188 -41.5t-112 -145.5t-68 -299z" />
<glyph unicode="g" horiz-adv-x="1536" d="M868 1019q-106 -77 -184 -225.5t-78 -293.5q0 -187 126 -289q0 -15 -32 -41.5t-55 -26.5q-369 0 -466 249q-27 69 -27 155.5t38 170.5t111 152.5t192 109.5t269 41q34 0 106 -2zM930 942q0 13 32 41t56 28q59 0 173 -15.5t220 -47.5q-61 -296 -139 -920 q-62 -495 -547 -495q-74 0 -135 8q87 81 136 197q56 134 76 226q67 306 97.5 580.5t30.5 397.5zM416 -435q-121 12 -207 75t-86 138t59 127q110 98 309 98q65 0 122 -13q-53 -53 -85 -130t-32 -137t8 -91q0 -15 -32.5 -41t-55.5 -26z" />
<glyph unicode="h" horiz-adv-x="1535" d="M870 -10q-58 56 -58 144t44.5 336t44.5 305.5t-27.5 83t-71.5 25.5q9 60 34 90q37 18 116.5 33t147.5 15q133 0 199.5 -61t66.5 -193q0 -74 -32 -260t-32 -228t3.5 -63t6 -33t13.5 -27.5t14 -19t20 -20t20 -19.5q0 -14 -29 -46.5t-53 -42.5q-128 -19 -427 -19zM601 68 q0 -14 -32 -41t-56 -27h-412q44 188 101.5 628t79.5 690q0 13 32 39.5t55 26.5h421q-53 -220 -110 -634.5t-79 -681.5z" />
<glyph unicode="i" horiz-adv-x="852" d="M97 0q87 368 133 928q0 13 33 39t55 26h419q-87 -374 -133 -927q0 -13 -32 -39.5t-55 -26.5h-420zM681 1128h-418q19 77 25 151q0 14 32 40.5t55 26.5h420q-13 -47 -27 -152q0 -14 -31.5 -40t-55.5 -26z" />
<glyph unicode="j" horiz-adv-x="852" d="M317 993h419q-36 -157 -89 -487t-73 -505q-25 -226 -153.5 -324t-393.5 -98q53 180 116 623t87 725q0 13 32 39.5t55 26.5zM689 1128h-418q19 77 25 151q0 14 32 40.5t55 26.5h420q-13 -47 -27 -152q0 -14 -31.5 -40t-55.5 -26z" />
<glyph unicode="k" horiz-adv-x="1535" d="M1338 367l-7 -148q0 -47 20.5 -68.5t69.5 -21.5q-10 -62 -33 -102q-142 -42 -297 -42t-199.5 33.5t-44.5 89t13.5 144.5t13.5 141q0 92 -104 111q9 49 34 78q96 29 142 87t46 110.5t-20 81t-48 28.5t-55 -9q9 60 34 90q118 57 229.5 57t176.5 -50t65 -127.5t-34.5 -130 t-91.5 -85.5q-112 -67 -257 -81q170 0 258.5 -49t88.5 -137zM638 68q0 -14 -32 -41t-56 -27h-412q44 188 101.5 628t79.5 690q0 13 32 39.5t55 26.5h421q-53 -220 -110 -634.5t-79 -681.5z" />
<glyph unicode="l" horiz-adv-x="852" d="M602 68q0 -14 -32 -41t-56 -27h-412q44 188 101.5 628t79.5 690q0 13 32 39.5t55 26.5h421q-53 -220 -110 -634.5t-79 -681.5z" />
<glyph unicode="m" horiz-adv-x="2215" d="M535 0h-420q108 457 147 925q0 12 32 36.5t67.5 30.5t174 16.5t215.5 10.5q-87 -443 -129 -953q0 -13 -32 -39.5t-55 -26.5zM804 0q104 601 104 740.5t-65 139.5q14 54 44 91q102 48 231.5 48t191 -63t61.5 -191q0 -67 -37 -316.5t-46 -382.5q0 -13 -32 -39.5t-56 -26.5 h-396zM1555 -2q-59 59 -59 130t38 325.5t38 314.5t-35 86t-81 26q9 58 33 91q37 18 121.5 33t152.5 15q134 0 200.5 -61t66.5 -193q0 -75 -35.5 -255t-35.5 -222t3.5 -63t6 -32.5t14 -27.5t14 -19.5t20.5 -20.5t20 -19q0 -13 -29.5 -45.5t-53.5 -43.5q-129 -19 -399 -19z " />
<glyph unicode="n" horiz-adv-x="1535" d="M515 0h-420q104 438 144 925q0 12 32 36.5t67.5 30.5t174 16.5t214.5 10.5q-81 -419 -125 -953q0 -13 -32 -39.5t-55 -26.5zM876 -10q-58 56 -58 144t44.5 336t44.5 305.5t-27.5 83t-71.5 25.5q9 60 34 90q37 18 116.5 33t147.5 15q133 0 199.5 -61t66.5 -193 q0 -74 -32 -260t-32 -228t3.5 -63t6 -33t13.5 -27.5t14 -19t20 -20t20 -19.5q0 -14 -29 -46.5t-53 -42.5q-128 -19 -427 -19z" />
<glyph unicode="o" horiz-adv-x="1535" d="M835 1027q-240 -230 -240 -621q0 -166 44 -334q-1 -15 -32.5 -41t-53.5 -26q-168 23 -291 139q-129 122 -129 304.5t91.5 312t250.5 198t360 68.5zM700 -9q240 230 240 621q0 166 -44 334q1 15 32.5 41t53.5 26q168 -23 290 -139q130 -122 130 -304.5t-91.5 -312 t-250.5 -198t-360 -68.5z" />
<glyph unicode="p" horiz-adv-x="1535" d="M52 -419q154 720 203 1346q0 12 32 37.5t73 29.5t185.5 12.5t207.5 8.5q-109 -472 -193 -1369q0 -13 -32.5 -39t-54.5 -26h-421zM719 0q76 48 131 148q102 187 102 416t-108 388q0 15 31 41t54 26q133 0 242 -54t175 -158.5t66 -241.5q0 -251 -186.5 -408t-506.5 -157z " />
<glyph unicode="q" horiz-adv-x="1535" d="M1245 -354q0 -13 -32 -39t-55 -26h-420q53 222 115 669.5t82 704.5q0 12 33 38t55 26q215 0 401 -56q-44 -189 -100.5 -626t-78.5 -691zM835 1019q-121 -90 -180 -253t-59 -296.5t35 -240.5t86 -161q0 -15 -32 -41.5t-55 -26.5q-233 0 -370 120.5t-137 335.5 q0 107 51 208t141 180t226 127t294 48z" />
<glyph unicode="r" horiz-adv-x="1195" d="M1087 1019q114 0 114 -143q0 -89 -31 -177.5t-78 -135.5q-66 46 -162.5 76.5t-184.5 33.5q8 55 32 117q161 229 310 229zM488 0h-419q102 436 144 925q0 11 32.5 36t67 31t179 16.5t221.5 10.5q-99 -495 -138 -953q0 -13 -32 -39.5t-55 -26.5z" />
<glyph unicode="s" horiz-adv-x="1195" d="M662 1028q-57 -54 -57 -114q0 -140 213 -290q96 -68 150 -116q121 -108 121 -234.5t-126.5 -204t-354.5 -77.5q26 58 26 105t-26.5 91.5t-68.5 81.5t-93 74.5t-102 76.5t-93 80q-95 93 -95 201q0 119 88 194q151 127 418 132zM817 1025q141 0 242 -55.5t101 -135.5 q0 -124 -232 -152q2 7 2 22q0 76 -48 140.5t-134 103.5q0 16 22 44t47 33zM433 -4q-50 -4 -74 -4q-145 0 -241 47.5t-96 123.5q0 153 231 193q-8 -43 -6.5 -75.5t22 -64t57.5 -56.5q66 -44 164 -81q0 -15 -18.5 -44.5t-38.5 -38.5z" />
<glyph unicode="t" horiz-adv-x="1025" d="M904 61q-205 -66 -409 -66q-393 0 -393 313q0 68 29 271.5t29 281t-7 118.5q137 61 241 138t202 189q50 15 130 15q-67 -236 -106.5 -485t-39.5 -367.5t17 -171t55 -81.5q67 -51 212 -51q35 0 74 3q-9 -66 -34 -107zM729 756q9 139 45 258q98 -41 219 -58q8 -15 15 -49.5 t7 -54.5q-139 -38 -286 -96z" />
<glyph unicode="u" horiz-adv-x="1532" d="M156 258q0 103 33.5 284t33.5 254t-47 103q0 16 29 58.5t50 42.5h391q19 -10 37 -36.5t18 -67.5t-43.5 -265.5t-43.5 -350.5q0 -64 32.5 -97.5t83.5 -33.5q-2 -13 -2 -33q0 -44 -12 -57q-49 -31 -129.5 -49.5t-154.5 -18.5q-276 0 -276 267zM911 2q-79 56 -79 137 t42.5 363t54.5 432q0 13 32.5 39.5t55.5 26.5h406q-54 -232 -87 -436t-33 -278t18.5 -109t58.5 -67q0 -14 -29 -46.5t-53 -42.5q-129 -19 -387 -19z" />
<glyph unicode="v" horiz-adv-x="1195" d="M887 934q0 13 34.5 39.5t58.5 26.5h262q-104 -154 -255 -402q-8 -12 -47.5 -27t-64.5 -15q31 110 31 212t-19 166zM346 0q-64 339 -261 936q0 14 33.5 40t58.5 26h429q19 -165 59 -309q74 -272 155 -272q36 0 57.5 8.5t25.5 9.5q-31 -58 -97.5 -215t-70.5 -165.5 t-33 -33.5t-52 -25h-304z" />
<glyph unicode="w" horiz-adv-x="1872" d="M182 1002h448q22 -176 59 -311q70 -256 156 -256q21 0 41 4q-31 -58 -97.5 -215t-70.5 -165.5t-33 -33.5t-52 -25h-263q-40 220 -230 783l-51 153q0 14 34 40t59 26zM890 1002h448q8 -75 16 -158t16 -142.5t18.5 -103t25.5 -82.5q29 -81 79 -81q21 0 42 4 q-31 -57 -96 -209.5t-71 -166t-35 -38.5t-51 -25h-262q-41 220 -106 501t-117 435q0 14 34 40t59 26zM1561 934q0 13 34 39.5t58 26.5h263q-27 -40 -148 -207t-160 -237q-7 -13 -38 -27.5t-55 -14.5q49 164 49 342q0 39 -3 78z" />
<glyph unicode="x" d="M1096 0h-455q-93 274 -289 659q-100 195 -138 275q0 13 32.5 39.5t54.5 26.5h456q88 -275 285 -654q100 -193 142 -280q0 -14 -32 -40t-56 -26zM975 614q30 84 30 185.5t-20 134.5q1 14 34 40t57 26h320q-31 -29 -89 -80t-86 -77q-77 -71 -134 -163q-9 -14 -49.5 -40 t-62.5 -26zM399 447q-45 -107 -45 -212.5t27 -168.5q-1 -13 -35.5 -39.5t-57.5 -26.5h-318q107 108 179 193t134 189q8 14 50.5 39.5t65.5 25.5z" />
<glyph unicode="y" horiz-adv-x="1535" d="M178 314q0 82 29.5 235t29.5 221q0 106 -56 129q0 16 29 58.5t50 42.5h389q23 -8 39 -31.5t16 -65.5t-20 -135q-60 -281 -60 -417q0 -63 37.5 -97t90.5 -34q-8 -58 -34 -90q-108 -68 -252 -68q-288 0 -288 252zM932 942q0 12 31.5 33t56.5 21h393q-80 -382 -133 -907 q-40 -388 -242 -493q-122 -63 -322 -63q-31 0 -99 4q85 100 130.5 236.5t82 324t69.5 445t34 313.5t-1 86zM416 -438q-132 11 -211.5 61t-79.5 120.5t63 119.5q123 96 343 96q70 0 142 -12q-58 -56 -93 -122.5t-35 -113.5t9 -82q0 -15 -50.5 -41t-87.5 -26z" />
<glyph unicode="z" d="M136 604q21 189 60 324q8 20 35 46t45 26h324q-10 -24 -32.5 -57t-45.5 -48q-83 -53 -148 -114t-145 -154q-6 -9 -36 -16t-57 -7zM1253 431q-22 -202 -66 -359q-7 -20 -34.5 -46t-45.5 -26h-344q31 71 89.5 112.5t85.5 62t70 57.5q70 61 138 164q7 10 45 22.5t62 12.5z M65 87q351 377 669 913h487q23 0 54.5 -26t34.5 -40q-126 -137 -313.5 -394.5t-361.5 -539.5h-482q-23 0 -55.5 36t-32.5 51z" />
<glyph unicode="{" horiz-adv-x="539" d="M217 976l26 205q18 142 50.5 188.5t59 66t71.5 30.5q68 17 203 17l-10 -83q-54 0 -74.5 -20t-29.5 -54q-16 -58 -30 -192l-21 -192q-25 -231 -254 -276q79 -25 123 -63t44 -90.5t-20 -201.5l-16 -117q-8 -58 -8 -150q0 -144 89 -149l-11 -78q-166 0 -243 39t-77 144 q0 75 13 196l16 140q17 141 17 191.5t-21.5 75.5t-72.5 25l16 104q83 0 112 46.5t48 197.5z" />
<glyph unicode="|" horiz-adv-x="782" d="M342 -361q0 -13 -31.5 -35.5t-56.5 -22.5h-72q60 378 136.5 940t112.5 890q0 13 31.5 35.5t56.5 22.5h72q-60 -378 -136.5 -940t-112.5 -890z" />
<glyph unicode="}" horiz-adv-x="539" d="M344 339l-26 -205q-18 -142 -50.5 -188.5t-59 -66t-70.5 -30.5q-69 -17 -204 -17l10 83q54 0 74.5 20t29.5 53q16 59 30 193l21 192q25 231 254 276q-79 25 -123 63t-44 90.5t20 201.5l16 117q8 58 8 150q0 144 -89 149l11 78q166 0 243 -39t77 -144q0 -75 -13 -196 l-16 -140q-17 -141 -17 -191.5t21.5 -75.5t72.5 -25l-16 -104q-83 0 -112 -46.5t-48 -197.5z" />
<glyph unicode="~" d="M1206 451q-164 -65 -299.5 -65t-302 26.5t-279 26.5t-206.5 -26q0 63 8 94q167 65 294 65t281 -26.5t286 -26.5t226 26q0 -63 -8 -94z" />
<glyph unicode="&#xa1;" horiz-adv-x="856" d="M340 586l223 11q-33 -246 -33 -755q0 -71 -5 -122q0 -13 -32.5 -38.5t-54.5 -26.5l-409 -15q150 537 224 880q0 14 31.5 39.5t55.5 26.5zM652 774q-85 -84 -226 -84q-101 0 -160 42.5t-59 113.5t79.5 124t185.5 53t165.5 -42t59.5 -103t-45 -104z" />
<glyph unicode="&#xa2;" d="M713 -212q0 -13 -31.5 -35.5t-56.5 -22.5h-32q20 83 47 255q-225 16 -366 139.5t-141 335.5q0 165 82 296.5t219 202.5t302 71q13 0 41 -2q14 120 21 212q0 13 31.5 34.5t55.5 21.5h41q-24 -95 -56 -280q-104 -80 -172.5 -217t-68.5 -261t30 -198t85 -119 q109 -89 283 -89q88 0 188 23q-80 -95 -193 -133t-290 -40q-11 -94 -19 -194zM1039 989q115 -24 184.5 -104t69.5 -160.5t-71 -119t-142 -38.5t-142 27q7 94 7 171.5t-13 158.5q3 22 40.5 43.5t66.5 21.5z" />
<glyph unicode="&#xa3;" d="M231 278q36 94 61 215q-164 -25 -251 -46v32q0 25 22.5 56.5t35.5 31.5q51 4 211 21q7 46 18.5 128.5t17.5 119.5t19 102.5t26 99.5t35.5 86.5t49.5 81t67 64t88 54.5q117 48 253 57q-77 -212 -111 -477q-21 -163 -28 -264q181 29 247 46v-41q0 -24 -21.5 -55.5 t-34.5 -31.5q-49 -3 -203 -18q-18 -109 -67 -156q-65 -62 -265 -84q-64 -7 -170 -22zM968 -37l-602 15q-203 0 -320 -8q10 47 43 96t81 78t160 45.5t240 24t260 21t256 54t199 109.5q-31 -232 -71 -306q-38 -74 -90 -100q-61 -29 -156 -29zM1180 755q-38 186 -88 309.5 t-144 230.5q2 18 34 42t54 24q174 -19 324 -72q-2 -58 -25 -216t-45 -251q-4 -16 -45 -41.5t-65 -25.5z" />
<glyph unicode="&#xa4;" d="M364 1205l105 -182q148 93 299 93t260 -67l89 121q13 18 42 40.5t53 23.5l115 -53q-112 -127 -193 -225q100 -122 100 -289q0 -126 -55 -241.5t-151 -201.5q81 -113 155 -208q0 -13 -31.5 -35.5t-56.5 -22.5h-72q-86 140 -112 181q-140 -80 -289.5 -80t-262.5 75 q-9 -13 -37 -50.5t-42 -57.5t-43 -42.5t-53 -23.5l-115 53q90 102 187 217q-91 118 -91 278q0 114 50.5 225t139.5 199q-141 200 -151 215q0 13 31.5 35.5t56.5 22.5h72zM639 195q87 0 170.5 37t146.5 98t101.5 145t38.5 173q0 142 -95.5 236.5t-226 94.5t-236.5 -62 t-171 -167t-65 -235.5t95 -225t242 -94.5z" />
<glyph unicode="&#xa5;" d="M113 400q98 8 256 26l-21 104q-188 -29 -273 -50v32q0 25 22.5 56.5t35.5 31.5q49 4 196 19q-63 289 -176 677q0 13 31.5 39t55.5 26h465q48 -498 189 -925q38 6 112 17q164 24 213 36v-41q0 -24 -21.5 -55.5t-35 -32t-62.5 -4.5q-69 -4 -202 -16q-21 -109 -38 -274 q0 -13 -32.5 -39.5t-56.5 -26.5h-442q36 185 54 338q-232 -35 -328 -58v32q0 25 22.5 56.5t35.5 31.5zM1420 1361q-140 -219 -388 -709q174 32 227 46v-41q0 -24 -21.5 -55.5t-34.5 -31.5q-104 -9 -274 -29h-6q92 341 92 674q0 54 -2 81q0 13 32.5 39t56.5 26h318z" />
<glyph unicode="&#xa6;" horiz-adv-x="782" d="M309 435l136 6q-74 -543 -103 -802q0 -13 -31.5 -35.5t-56.5 -22.5h-72q75 470 127 854zM483 720l-136 -10q45 340 84 701q0 13 31.5 35.5t56.5 22.5h72q-37 -232 -108 -749z" />
<glyph unicode="&#xa7;" horiz-adv-x="1319" d="M797 1502q-57 -54 -57 -114q0 -140 213 -290q215 -151 255 -240q17 -40 17 -84q0 -211 -315 -211q-64 0 -141 9q0 88 -95 172q-42 37 -93 74.5t-102 76.5t-93 80q-95 93 -95 201q0 119 88 194q151 127 418 132zM372 734q94 16 195 18q0 -140 213 -290q96 -68 150 -116 q121 -108 121 -234.5t-126.5 -204t-354.5 -77.5q26 58 26 104t-26.5 89t-69 79t-94 71.5t-103 72.5t-94 75t-69 85t-26.5 97t20.5 91t58 67t81 44.5t98.5 28.5zM272 -166q-61 0 -95 30t-34 83t49.5 88.5t106.5 35.5t91.5 -30.5t34.5 -80.5t-45.5 -88t-107.5 -38zM1033 1264 q-61 0 -95 30t-34 83t49.5 88.5t106.5 35.5t91.5 -30.5t34.5 -80.5t-45.5 -88t-107.5 -38z" />
<glyph unicode="&#xa8;" horiz-adv-x="1122" d="M154 1397q73 88 195 88q88 0 139.5 -44.5t51.5 -118.5t-69 -130.5t-161 -56.5t-143.5 44.5t-51.5 108t39 109.5zM710 1397q75 88 179.5 88t155.5 -44.5t51 -118.5t-69 -130.5t-161 -56.5t-143.5 44.5t-51.5 108t39 109.5z" />
<glyph unicode="&#xa9;" horiz-adv-x="1707" d="M205 405q-55 131 -55 275t55.5 274.5t150 225t225 150.5t274.5 56t274.5 -56t225 -150.5t150.5 -225t56 -274.5t-56 -274.5t-150.5 -225t-225 -150t-274.5 -55.5t-274.5 55.5t-225 150t-150.5 224.5zM313 994q-83 -144 -83 -314t83.5 -314t227.5 -227.5t314 -83.5 t314 83.5t227.5 227.5t83.5 314t-83.5 314t-227.5 227.5t-314 83.5t-314 -83.5t-228 -227.5zM1114 723q-23 112 -53.5 186.5t-86.5 138.5q2 11 21 25.5t32 14.5q108 -12 195 -43q-2 -36 -15.5 -131.5t-26.5 -150.5q-2 -9 -26.5 -24.5t-39.5 -15.5zM1170 572 q-13 -135 -38 -250q-34 -30 -111.5 -48.5t-176.5 -18.5q88 63 140.5 125.5t106.5 156.5q14 14 39 24.5t40 10.5zM938 1103q-88 -76 -138 -219t-50 -308.5t57 -279.5q0 -9 -19.5 -25t-33.5 -16q-133 24 -224.5 123t-91.5 246q0 186 116 328q57 69 150.5 110.5t210.5 41.5 q14 0 23 -1z" />
<glyph unicode="&#xaa;" horiz-adv-x="1025" d="M944 737q-143 -30 -316 -30q-37 49 -37 102t33 271t34 289q0 9 23.5 27.5t40.5 18.5q169 0 305 -40q-3 -23 -39 -179.5t-36 -251.5t53 -144q0 -10 -21 -32.5t-40 -30.5zM596 1425q-88 -62 -132.5 -168t-44.5 -208.5t23.5 -183.5t64.5 -108q0 -10 -23.5 -29.5t-39.5 -19.5 q-169 0 -275 81.5t-106 220.5q0 176 146 295.5t387 119.5z" />
<glyph unicode="&#xab;" horiz-adv-x="1344" d="M771 970v-127q0 -21 -23 -47t-109 -95t-281 -246q175 -196 313 -341q0 -20 -27.5 -76.5t-38.5 -61.5q-220 188 -511 417q8 90 24 152q345 220 653 425zM1301 970v-127q0 -21 -23 -47t-109 -95t-281 -246q175 -196 313 -341q0 -20 -27.5 -76.5t-38.5 -61.5 q-220 188 -511 417q8 90 24 152q345 220 653 425z" />
<glyph unicode="&#xac;" d="M1112 268q0 -13 -31.5 -35.5t-56.5 -22.5h-72q24 115 35 232q-354 -1 -780 -15v69q0 25 22.5 56t35.5 32q474 0 892 15q-26 -138 -45 -331z" />
<glyph unicode="&#xad;" horiz-adv-x="1707" d="M1270 447q-425 0 -892 -15v64q0 25 22.5 56t35.5 32q474 0 892 15v-64q0 -25 -22.5 -56.5t-35.5 -31.5z" />
<glyph unicode="&#xae;" horiz-adv-x="1707" d="M205 405q-55 131 -55 275t55.5 274.5t150 225t225 150.5t274.5 56t274.5 -56t225 -150.5t150.5 -225t56 -274.5t-56 -274.5t-150.5 -225t-225 -150t-274.5 -55.5t-274.5 55.5t-225 150t-150.5 224.5zM313 994q-83 -144 -83 -314t83.5 -314t227.5 -227.5t314 -83.5 t314 83.5t227.5 227.5t83.5 314t-83.5 314t-227.5 227.5t-314 83.5t-314 -83.5t-228 -227.5zM760 320q0 -8 -19.5 -24t-33.5 -16h-274q81 325 118 775q0 7 19 22.5t33 16.5q180 15 276 15q-87 -377 -119 -789zM1198 551l-9 -121q0 -33 12 -52.5t45 -25.5q-7 -41 -20 -62 q-102 -25 -180.5 -25t-120 21t-41.5 65t13.5 120t13.5 106q0 75 -53 81q3 28 20 48q50 26 78.5 82t28.5 137.5t-58 142.5q0 9 19.5 25.5t32.5 16.5q109 0 187 -45q87 -50 87 -145t-77.5 -154.5t-208.5 -68.5l55 -4q79 -6 127.5 -41t48.5 -101z" />
<glyph unicode="&#xaf;" horiz-adv-x="1122" d="M850 1217q-355 0 -592 -15l30 219q4 25 25 56t33 32q388 0 592 15l-30 -219q-4 -26 -25 -57t-33 -31z" />
<glyph unicode="&#xb0;" horiz-adv-x="736" d="M112 1161q0 149 93.5 244.5t240.5 95.5q109 0 175.5 -71t66.5 -179q0 -154 -94.5 -246.5t-221 -92.5t-193.5 70.5t-67 178.5zM417 1381q-70 0 -121.5 -55.5t-51.5 -134t35 -119t104 -40.5t121 53.5t52 133.5t-34.5 121t-104.5 41z" />
<glyph unicode="&#xb1;" d="M1129 547q-232 12 -364 13q-18 -132 -33 -275.5t-19 -151.5q147 3 414 13v-69q0 -25 -22.5 -56.5t-35.5 -31.5q-425 0 -892 -15v69q0 25 22.5 56t35.5 32h329q54 344 66 429q-130 -4 -393 -28v72q0 25 22.5 56t35.5 32q206 -11 351 -14q8 63 46 399q0 13 31.5 35.5 t56.5 22.5h72q-41 -253 -71 -457q115 3 406 29v-72q0 -25 -22.5 -56.5t-35.5 -31.5z" />
<glyph unicode="&#xb2;" horiz-adv-x="1025" d="M493 758v-12q0 -8 -21.5 -22.5t-37.5 -14.5h-310q-12 31 -12 70.5t26.5 88t69.5 91.5t94.5 86.5t103.5 85t95 80.5q96 87 96 157q0 25 -12 49q0 7 21.5 21t37.5 15q285 -18 285 -189q0 -108 -154 -226q-64 -49 -128 -96q-154 -111 -154 -184zM179 1181q15 122 57 226 q6 11 23 24t32 16q129 24 263 26q-98 -40 -155 -95q-75 -73 -151 -161q-6 -7 -30.5 -21.5t-38.5 -14.5zM824 928q7 8 31 22t39 14q-22 -149 -43 -215q-7 -12 -25 -26t-30 -14h-240q136 74 268 219z" />
<glyph unicode="&#xb3;" horiz-adv-x="1025" d="M950 1286q0 -169 -416 -191q183 0 240.5 -21t91.5 -42q71 -43 71 -123.5t-60 -128.5q-112 -91 -347 -91q-72 0 -130 9q172 79 172 222q0 49 -31 83q-58 63 -182 67l-1 13q0 19 12 41q110 0 181.5 61.5t71.5 133.5t-56 109q0 9 24.5 24t41.5 15q168 0 265 -79 q52 -43 52 -102zM216 992q56 -187 154 -244q-2 -9 -25.5 -27t-39.5 -18q-50 4 -114 19t-89 25q17 126 37 219q23 15 77 26zM176 1177q21 144 40 184q36 79 78 86q130 25 242 26q-80 -45 -143.5 -103t-143.5 -155q-6 -8 -31 -23t-42 -15z" />
<glyph unicode="&#xb4;" horiz-adv-x="1122" d="M379 1145q-34 43 -49 105q235 208 461 355q40 -52 91 -167t63 -177q-225 -77 -566 -116z" />
<glyph unicode="&#xb5;" d="M1079 275q0 -129 65 -180q0 -14 -29 -46.5t-53 -42.5l-34 -4q-35 25 -62.5 65.5t-27.5 84.5t2 67q-70 -109 -161.5 -168t-174.5 -59q-152 0 -241 124q-47 -298 -47 -477q0 -13 -31.5 -35.5t-56.5 -22.5h-62q7 171 89 672t82 573.5t-0.5 93.5t30 50.5t52.5 29.5h31 q18 -9 31.5 -35.5t13.5 -60t-42 -288.5t-42 -330t58 -118.5t147.5 -43.5t178 57t157.5 161q55 386 73 592q0 13 32.5 39.5t55.5 26.5h86q-54 -232 -87 -436t-33 -289z" />
<glyph unicode="&#x3bc;" d="M1079 275q0 -129 65 -180q0 -14 -29 -46.5t-53 -42.5l-34 -4q-35 25 -62.5 65.5t-27.5 84.5t2 67q-70 -109 -161.5 -168t-174.5 -59q-152 0 -241 124q-47 -298 -47 -477q0 -13 -31.5 -35.5t-56.5 -22.5h-62q7 171 89 672t82 573.5t-0.5 93.5t30 50.5t52.5 29.5h31 q18 -9 31.5 -35.5t13.5 -60t-42 -288.5t-42 -330t58 -118.5t147.5 -43.5t178 57t157.5 161q55 386 73 592q0 13 32.5 39.5t55.5 26.5h86q-54 -232 -87 -436t-33 -289z" />
<glyph unicode="&#xb6;" horiz-adv-x="1431" d="M810 1401q-147 -245 -147 -638q0 -110 12 -211q0 -14 -32.5 -41t-55.5 -27q-185 12 -303 126t-118 283.5t70 286.5q139 233 454 233q72 0 120 -12zM1049 1380q-101 -518 -245 -1637h-161q53 222 129.5 772t96.5 805q0 12 33 38t68 26t79 -4zM993 -257h-78 q60 314 127.5 788t98.5 837q64 -15 238 -38q9 -14 15.5 -48.5t6.5 -54.5q-80 -23 -143 -45q-42 -242 -102 -714.5t-76 -659.5q0 -13 -32 -39t-55 -26z" />
<glyph unicode="&#xb7;" horiz-adv-x="682" d="M128 619q84 84 224 84q101 0 160.5 -43t59.5 -113.5t-79.5 -124t-185.5 -53.5t-165 42t-59 103t45 105z" />
<glyph unicode="&#xb8;" horiz-adv-x="1122" d="M450 -299q95 -46 195 -46t100 70t-121 70q-11 0 -56 -3q-23 29 -33 76q62 31 113 41.5t145.5 10.5t162 -45.5t67.5 -139t-68 -148t-218 -54.5t-284 67q-4 24 -4 56.5t1 44.5z" />
<glyph unicode="&#xb9;" horiz-adv-x="1025" d="M343 1397q-6 -61 -33 -119h-162q11 53 24 75q78 15 171 44zM701 747q0 -7 -29.5 -21.5t-50.5 -14.5h-375q108 266 195 711q0 7 30 21.5t50 14.5h298q-86 -324 -118 -711z" />
<glyph unicode="&#xba;" horiz-adv-x="1025" d="M596 1426q-169 -146 -169 -437q0 -116 35 -235q-1 -11 -25.5 -29t-42.5 -18q-135 17 -227.5 102t-92.5 219q0 182 142 290t380 108zM529 697q170 144 170 436q0 122 -35 236q0 10 25.5 28.5t42.5 18.5q135 -17 227.5 -102t92.5 -219q0 -183 -142.5 -290.5t-380.5 -107.5z " />
<glyph unicode="&#xbb;" horiz-adv-x="1344" d="M54 -24v127q0 32 66 88q144 116 346 290q-140 162 -312 351q0 20 27.5 76.5t38.5 61.5q239 -209 511 -427q-8 -90 -24 -152q-351 -214 -653 -415zM554 -24v127q0 32 66 88q144 116 346 290q-140 162 -312 351q0 20 27.5 76.5t38.5 61.5q239 -209 511 -427 q-8 -90 -24 -152q-351 -214 -653 -415z" />
<glyph unicode="&#xbc;" horiz-adv-x="1948" d="M1821 224q-1 -13 -12 -51.5t-17 -49.5h-131q-5 -32 -11 -87q0 -7 -24.5 -21.5t-42.5 -14.5h-349q107 330 150 712q0 7 25 21.5t42 14.5h349q-81 -245 -127 -524h148zM1198 123h-298q-20 33 -35 89q71 54 227.5 210t228.5 245q-112 -247 -250 -443h152q-9 -61 -25 -101z M468 5q-47 -58 -88 -58h-122q600 703 1146 1395q44 58 88 58h122q-510 -604 -1146 -1395zM272 1397q-6 -61 -33 -119h-162q11 53 24 75q78 15 171 44zM630 747q0 -7 -29.5 -21.5t-50.5 -14.5h-375q108 266 195 711q0 7 30 21.5t50 14.5h298q-86 -324 -118 -711z" />
<glyph unicode="&#xbd;" horiz-adv-x="1948" d="M468 5q-47 -58 -88 -58h-122q600 703 1146 1395q44 58 88 58h122q-510 -604 -1146 -1395zM272 1397q-6 -61 -33 -119h-162q11 53 24 75q78 15 171 44zM630 747q0 -7 -29.5 -21.5t-50.5 -14.5h-375q108 266 195 711q0 7 30 21.5t50 14.5h298q-86 -324 -118 -711zM1421 149 v-12q0 -8 -21.5 -22.5t-37.5 -14.5h-310q-12 31 -12 70.5t26.5 88t69.5 91.5t94.5 86.5t103.5 85t95 80.5q96 87 96 157q0 25 -12 49q0 7 21.5 21t37.5 15q285 -18 285 -189q0 -108 -154 -226q-64 -49 -128 -95q-154 -112 -154 -185zM1107 572q15 122 57 226q6 11 23 24 t32 16q129 24 263 26q-98 -40 -155 -95q-75 -73 -151 -161q-6 -7 -30.5 -21.5t-38.5 -14.5zM1752 319q7 8 31 22t39 14q-22 -149 -43 -215q-7 -12 -25 -26t-30 -14h-240q136 74 268 219z" />
<glyph unicode="&#xbe;" horiz-adv-x="1948" d="M1924 224q-1 -13 -12 -51.5t-17 -49.5h-131q-5 -32 -11 -87q0 -7 -24.5 -21.5t-42.5 -14.5h-349q107 330 150 712q0 7 25 21.5t42 14.5h349q-81 -245 -127 -524h148zM1301 123h-298q-20 33 -35 89q71 54 227.5 210t228.5 245q-112 -247 -250 -443h152q-9 -61 -25 -101z M571 5q-47 -58 -88 -58h-122q600 703 1146 1395q43 58 88 58h122q-510 -604 -1146 -1395zM874 1286q0 -169 -416 -191q183 0 240.5 -21t91.5 -42q71 -43 71 -123.5t-60 -128.5q-112 -91 -347 -91q-72 0 -130 9q172 79 172 222q0 49 -31 83q-58 63 -182 67l-1 13q0 19 12 41 q110 0 181.5 61.5t71.5 133.5t-56 109q0 9 24.5 24t41.5 15q168 0 265 -79q52 -43 52 -102zM140 992q56 -187 154 -244q-2 -9 -25.5 -27t-39.5 -18q-50 4 -114 19t-89 25q17 126 37 219q23 15 77 26zM100 1177q21 144 40 184q36 79 78 86q130 25 242 26q-80 -45 -143.5 -103 t-143.5 -155q-6 -8 -31 -23t-42 -15z" />
<glyph unicode="&#xbf;" horiz-adv-x="1197" d="M462 543q15 22 43 42.5t45 21.5l325 12q-22 -164 -109 -291q-56 -80 -134.5 -168t-113.5 -136q-77 -104 -77 -219q0 -47 18 -86q-1 -14 -32.5 -39t-54.5 -27q-179 23 -280 105t-101 207q0 109 125 222q57 51 118 101q158 131 228 255zM1062 165q-29 -278 -72 -404 q-12 -19 -36 -43t-46 -31q-184 -55 -447 -57q258 130 490 459q11 16 50.5 46t60.5 30zM930 774q-85 -84 -225 -84q-101 0 -160.5 42.5t-59.5 113t80 124t186 53.5t165 -42t59 -103t-45 -104z" />
<glyph unicode="&#xc0;" d="M1163 0h-465q-78 622 -197 1080q58 118 99 216q7 15 36.5 40t50.5 25h318q41 -302 110.5 -672.5t135.5 -622.5q0 -13 -32 -39.5t-56 -26.5zM364 177l3 -111q0 -13 -32.5 -39.5t-55.5 -26.5h-319q158 268 490 982q9 -26 9 -72.5t-13.5 -134.5t-34.5 -207.5t-31 -193.5 q144 -22 209 -49q0 -60 -20 -89q-104 -9 -205 -27v-32zM1125 1460q-353 25 -582 73q5 60 37.5 149.5t68.5 149.5q225 -105 507 -282q-12 -51 -31 -90z" />
<glyph unicode="&#xc1;" d="M1163 0h-465q-78 622 -197 1080q58 118 99 216q7 15 36.5 40t50.5 25h318q41 -302 110.5 -672.5t135.5 -622.5q0 -13 -32 -39.5t-56 -26.5zM364 177l3 -111q0 -13 -32.5 -39.5t-55.5 -26.5h-319q158 268 490 982q9 -26 9 -72.5t-13.5 -134.5t-34.5 -207.5t-31 -193.5 q144 -22 209 -49q0 -60 -20 -89q-104 -9 -205 -27v-32zM582 1460q-19 39 -31 90q282 177 507 282q36 -60 68.5 -149.5t37.5 -149.5q-229 -48 -582 -73z" />
<glyph unicode="&#xc2;" d="M1163 0h-465q-78 622 -197 1080q58 118 99 216q7 15 36.5 40t50.5 25h318q41 -302 110.5 -672.5t135.5 -622.5q0 -13 -32 -39.5t-56 -26.5zM364 177l3 -111q0 -13 -32.5 -39.5t-55.5 -26.5h-319q158 268 490 982q9 -26 9 -72.5t-13.5 -134.5t-34.5 -207.5t-31 -193.5 q144 -22 209 -49q0 -60 -20 -89q-104 -9 -205 -27v-32zM438 1462q-33 47 -48 105q194 129 439 255h102q186 -109 393 -255q-22 -62 -60 -105q-241 30 -411 65q-223 -39 -415 -65z" />
<glyph unicode="&#xc3;" d="M1163 0h-465q-78 622 -197 1080q58 118 99 216q7 15 36.5 40t50.5 25h318q41 -302 110.5 -672.5t135.5 -622.5q0 -13 -32 -39.5t-56 -26.5zM364 177l3 -111q0 -13 -32.5 -39.5t-55.5 -26.5h-319q158 268 490 982q9 -26 9 -72.5t-13.5 -134.5t-34.5 -207.5t-31 -193.5 q144 -22 209 -49q0 -60 -20 -89q-104 -9 -205 -27v-32zM457 1503q-6 27 -6 54t4 50q60 94 131 121q60 23 127 23t210.5 -35.5t205 -35.5t128.5 6q6 -30 6 -55t-3 -49q-57 -89 -120 -116.5t-135.5 -27.5t-216.5 35.5t-204 35.5t-127 -6z" />
<glyph unicode="&#xc4;" d="M1163 0h-465q-78 622 -197 1080q58 118 99 216q7 15 36.5 40t50.5 25h318q41 -302 110.5 -672.5t135.5 -622.5q0 -13 -32 -39.5t-56 -26.5zM364 177l3 -111q0 -13 -32.5 -39.5t-55.5 -26.5h-319q158 268 490 982q9 -26 9 -72.5t-13.5 -134.5t-34.5 -207.5t-31 -193.5 q144 -22 209 -49q0 -60 -20 -89q-104 -9 -205 -27v-32zM402 1688q72 81 196 81q89 0 140 -40.5t51 -113.5t-68.5 -124.5t-161.5 -51.5t-144 40t-51 103t38 106zM959 1688q72 81 178.5 81t157 -40t50.5 -113.5t-68.5 -125t-161.5 -51.5t-144 40t-51 103t39 106z" />
<glyph unicode="&#xc5;" d="M680 1678q91 65 196 65t169 -60t64 -159t-86 -175q-8 -7 -15 -13q41 -292 107 -648q70 -370 136 -622q0 -13 -32 -39.5t-56 -26.5h-465q-78 622 -197 1080q58 118 99 216q7 15 36 40q2 1 3 2q-58 58 -58 130q0 76 28 127t71 83zM364 177l3 -111q0 -13 -32.5 -39.5 t-55.5 -26.5h-319q158 268 490 982q9 -26 9 -72.5t-13.5 -134.5t-34.5 -207.5t-31 -193.5q144 -22 209 -49q0 -60 -20 -89q-104 -9 -205 -27v-32zM854 1589q-36 0 -68 -24.5t-32 -60.5t22 -56.5t61 -20.5t69 26.5t30 60t-22.5 54.5t-59.5 21z" />
<glyph unicode="&#xc6;" horiz-adv-x="1887" d="M1117 0h-455q42 323 42 623t-16 457q73 123 122 216q8 15 39.5 40t53.5 25h328q-27 -616 -27 -632q259 -29 335 -52q0 -55 -23 -81q-141 -8 -315 -43q-1 -43 -1 -189.5t11 -297.5q-2 -13 -36.5 -39.5t-57.5 -26.5zM243 0h-349q88 110 366.5 502.5t346.5 479.5 q3 -17 3 -37t-1 -29q-6 -60 -94 -250.5t-112 -291.5q107 -17 184 -49q-8 -62 -30 -89q-103 -9 -208 -27l-4 -32q-3 -21 -5 -61t-3.5 -51.5t-36.5 -38t-57 -26.5zM1671 755q-63 266 -110.5 354t-107 125.5t-158.5 46.5q5 48 29 80h513q-7 -97 -30 -260.5t-49 -278.5 q-4 -17 -34 -42t-53 -25zM1615 411q11 14 50 40t61 26q-34 -297 -64 -405q-9 -20 -36 -46t-44 -26h-327q120 80 203 179.5t157 231.5z" />
<glyph unicode="&#xc7;" horiz-adv-x="1535" d="M473 -299q95 -46 195 -46t100 70t-121 70q-11 0 -56 -3q-23 29 -33 76q62 31 113 41.5t145.5 10.5t162 -45.5t67.5 -139t-68 -148t-218 -54.5t-284 67q-4 24 -4 56.5t1 44.5zM1263 755q-38 186 -88 309.5t-144 230.5q2 18 34 42t54 24q174 -19 324 -72q-2 -58 -25 -216 t-45 -251q-4 -16 -45 -41.5t-65 -25.5zM1356 505q-19 -207 -63 -414q-56 -50 -184 -80.5t-293 -30.5q145 104 232.5 208.5t177.5 259.5q22 22 63.5 39.5t66.5 17.5zM754 48q0 -15 -32 -41.5t-56 -26.5q-215 39 -365 196q-73 77 -115.5 184.5t-42.5 229t30 235t94.5 216 t156.5 179.5q198 167 509 167q24 0 38 -1q-146 -126 -228.5 -363.5t-82.5 -513t94 -461.5z" />
<glyph unicode="&#xc8;" horiz-adv-x="1364" d="M718 692q238 -26 348 -59q0 -55 -23 -81q-164 -10 -352 -52q-27 -210 -45 -434q0 -13 -32 -39.5t-55 -26.5h-466q134 485 198 1296q0 13 33 39t56 26h464q-76 -330 -126 -669zM1148 755q-24 151 -91 301t-135 225q5 48 29 80h363q-7 -97 -30 -260.5t-49 -278.5 q-4 -17 -34 -42t-53 -25zM1102 411q11 14 50 40t61 26q-34 -297 -64 -405q-9 -20 -36 -46t-44 -26h-367q246 165 400 411zM1138 1460q-353 25 -582 73q5 60 37.5 149.5t68.5 149.5q225 -105 507 -282q-12 -51 -31 -90z" />
<glyph unicode="&#xc9;" horiz-adv-x="1364" d="M718 692q238 -26 348 -59q0 -55 -23 -81q-164 -10 -352 -52q-27 -210 -45 -434q0 -13 -32 -39.5t-55 -26.5h-466q134 485 198 1296q0 13 33 39t56 26h464q-76 -330 -126 -669zM1148 755q-24 151 -91 301t-135 225q5 48 29 80h363q-7 -97 -30 -260.5t-49 -278.5 q-4 -17 -34 -42t-53 -25zM1102 411q11 14 50 40t61 26q-34 -297 -64 -405q-9 -20 -36 -46t-44 -26h-367q246 165 400 411zM595 1460q-19 39 -31 90q282 177 507 282q36 -60 68.5 -149.5t37.5 -149.5q-229 -48 -582 -73z" />
<glyph unicode="&#xca;" horiz-adv-x="1364" d="M718 692q238 -26 348 -59q0 -55 -23 -81q-164 -10 -352 -52q-27 -210 -45 -434q0 -13 -32 -39.5t-55 -26.5h-466q134 485 198 1296q0 13 33 39t56 26h464q-76 -330 -126 -669zM1148 755q-24 151 -91 301t-135 225q5 48 29 80h363q-7 -97 -30 -260.5t-49 -278.5 q-4 -17 -34 -42t-53 -25zM1102 411q11 14 50 40t61 26q-34 -297 -64 -405q-9 -20 -36 -46t-44 -26h-367q246 165 400 411zM451 1462q-33 47 -48 105q194 129 439 255h102q186 -109 393 -255q-22 -62 -60 -105q-241 30 -411 65q-223 -39 -415 -65z" />
<glyph unicode="&#xcb;" horiz-adv-x="1364" d="M718 692q238 -26 348 -59q0 -55 -23 -81q-164 -10 -352 -52q-27 -210 -45 -434q0 -13 -32 -39.5t-55 -26.5h-466q134 485 198 1296q0 13 33 39t56 26h464q-76 -330 -126 -669zM1148 755q-24 151 -91 301t-135 225q5 48 29 80h363q-7 -97 -30 -260.5t-49 -278.5 q-4 -17 -34 -42t-53 -25zM1102 411q11 14 50 40t61 26q-34 -297 -64 -405q-9 -20 -36 -46t-44 -26h-367q246 165 400 411zM416 1688q71 81 195 81q89 0 140 -40.5t51 -113.5t-68.5 -124.5t-161.5 -51.5t-144 40t-51 103t39 106zM972 1688q72 81 178.5 81t157 -40 t50.5 -113.5t-68.5 -125t-161.5 -51.5t-144 40t-51 103t39 106z" />
<glyph unicode="&#xcc;" horiz-adv-x="852" d="M537 0h-465q138 597 195 1296q0 13 32.5 39t55.5 26h465q-139 -592 -196 -1295q0 -13 -32 -39.5t-55 -26.5zM835 1460q-353 25 -582 73q5 60 37.5 149.5t68.5 149.5q225 -105 507 -282q-12 -51 -31 -90z" />
<glyph unicode="&#xcd;" horiz-adv-x="852" d="M537 0h-465q138 597 195 1296q0 13 32.5 39t55.5 26h465q-139 -592 -196 -1295q0 -13 -32 -39.5t-55 -26.5zM292 1460q-19 39 -31 90q282 177 507 282q36 -60 68.5 -149.5t37.5 -149.5q-229 -48 -582 -73z" />
<glyph unicode="&#xce;" horiz-adv-x="852" d="M537 0h-465q138 597 195 1296q0 13 32.5 39t55.5 26h465q-139 -592 -196 -1295q0 -13 -32 -39.5t-55 -26.5zM148 1462q-33 47 -48 105q194 129 439 255h102q186 -109 393 -255q-22 -62 -60 -105q-241 30 -411 65q-223 -39 -415 -65z" />
<glyph unicode="&#xcf;" horiz-adv-x="852" d="M537 0h-465q138 597 195 1296q0 13 32.5 39t55.5 26h465q-139 -592 -196 -1295q0 -13 -32 -39.5t-55 -26.5zM112 1688q72 81 196 81q89 0 140 -40.5t51 -113.5t-68.5 -124.5t-161.5 -51.5t-144 40t-51 103t38 106zM669 1688q72 81 178.5 81t157 -40t50.5 -113.5 t-68.5 -125t-161.5 -51.5t-144 40t-51 103t39 106z" />
<glyph unicode="&#xd0;" horiz-adv-x="1705" d="M597 -8q-172 0 -454 12q60 241 105 521q-102 -13 -173 -25v32q0 25 22.5 56.5t35.5 31.5q61 0 130 3q46 308 75 662q0 12 32.5 37t55.5 27q298 25 456 25q-80 -346 -133 -724q101 11 168 28v-41q0 -24 -21.5 -55.5t-34.5 -31.5q-66 0 -126 -2q-30 -238 -50 -489 q0 -14 -32 -40.5t-56 -26.5zM746 -20q88 63 163 206t118.5 325t43.5 357q0 277 -108 439q0 15 32 42t55 27q108 0 205.5 -44.5t169.5 -123.5t114.5 -195.5t42.5 -244.5t-31.5 -240t-99 -212t-164 -174.5t-236 -118t-305.5 -43.5z" />
<glyph unicode="&#xd1;" horiz-adv-x="1535" d="M1263 66q0 -13 -32 -39.5t-55 -26.5h-258q-113 205 -301.5 467t-343.5 439q13 107 40 390q3 14 34.5 39.5t52.5 25.5h261q133 -234 284.5 -443t353.5 -456q-26 -240 -36 -396zM1246 637q-48 247 -87.5 388.5t-106.5 270.5q0 13 32.5 39t56.5 26h318q-67 -289 -125 -657 q0 -14 -32 -40.5t-56 -26.5zM327 711q26 -210 71 -351.5t125 -293.5q0 -13 -32 -39.5t-56 -26.5h-318q67 291 122 645q0 13 32.5 39.5t55.5 26.5zM523 1503q-6 27 -6 54t4 50q60 94 131 121q60 23 127 23t210.5 -35.5t205 -35.5t128.5 6q6 -30 6 -55t-3 -49 q-57 -89 -120 -116.5t-135.5 -27.5t-216.5 35.5t-204 35.5t-127 -6z" />
<glyph unicode="&#xd2;" horiz-adv-x="1535" d="M689 -20q146 122 217.5 356t71.5 492.5t-53 467.5q0 14 32.5 40.5t55.5 26.5q145 -28 247 -121q194 -177 194 -491q0 -239 -120 -431q-133 -215 -366 -296q-128 -44 -279 -44zM888 1387q-147 -123 -219 -356t-72 -493t55 -466q0 -14 -32.5 -41t-56.5 -27 q-220 44 -333 220q-108 169 -108 391q0 239 120 433q132 213 366 294q128 45 280 45zM1166 1460q-353 25 -582 73q5 60 37.5 149.5t68.5 149.5q225 -105 507 -282q-12 -51 -31 -90z" />
<glyph unicode="&#xd3;" horiz-adv-x="1535" d="M689 -20q146 122 217.5 356t71.5 492.5t-53 467.5q0 14 32.5 40.5t55.5 26.5q145 -28 247 -121q194 -177 194 -491q0 -239 -120 -431q-133 -215 -366 -296q-128 -44 -279 -44zM888 1387q-147 -123 -219 -356t-72 -493t55 -466q0 -14 -32.5 -41t-56.5 -27 q-220 44 -333 220q-108 169 -108 391q0 239 120 433q132 213 366 294q128 45 280 45zM623 1460q-19 39 -31 90q282 177 507 282q36 -60 68.5 -149.5t37.5 -149.5q-229 -48 -582 -73z" />
<glyph unicode="&#xd4;" horiz-adv-x="1535" d="M689 -20q146 122 217.5 356t71.5 492.5t-53 467.5q0 14 32.5 40.5t55.5 26.5q145 -28 247 -121q194 -177 194 -491q0 -239 -120 -431q-133 -215 -366 -296q-128 -44 -279 -44zM888 1387q-147 -123 -219 -356t-72 -493t55 -466q0 -14 -32.5 -41t-56.5 -27 q-220 44 -333 220q-108 169 -108 391q0 239 120 433q132 213 366 294q128 45 280 45zM479 1462q-33 47 -48 105q194 129 439 255h102q186 -109 393 -255q-22 -62 -60 -105q-241 30 -411 65q-223 -39 -415 -65z" />
<glyph unicode="&#xd5;" horiz-adv-x="1535" d="M689 -20q146 122 217.5 356t71.5 492.5t-53 467.5q0 14 32.5 40.5t55.5 26.5q145 -28 247 -121q194 -177 194 -491q0 -239 -120 -431q-133 -215 -366 -296q-128 -44 -279 -44zM888 1387q-147 -123 -219 -356t-72 -493t55 -466q0 -14 -32.5 -41t-56.5 -27 q-220 44 -333 220q-108 169 -108 391q0 239 120 433q132 213 366 294q128 45 280 45zM498 1503q-6 27 -6 54t4 50q60 94 132 121q59 23 126 23t210.5 -35.5t205 -35.5t128.5 6q6 -30 6 -55t-3 -49q-57 -89 -120 -116.5t-136 -27.5t-217 35.5t-203.5 35.5t-126.5 -6z" />
<glyph unicode="&#xd6;" horiz-adv-x="1535" d="M689 -20q146 122 217.5 356t71.5 492.5t-53 467.5q0 14 32.5 40.5t55.5 26.5q145 -28 247 -121q194 -177 194 -491q0 -239 -120 -431q-133 -215 -366 -296q-128 -44 -279 -44zM888 1387q-147 -123 -219 -356t-72 -493t55 -466q0 -14 -32.5 -41t-56.5 -27 q-220 44 -333 220q-108 169 -108 391q0 239 120 433q132 213 366 294q128 45 280 45zM444 1688q71 81 195 81q89 0 140 -40.5t51 -113.5t-68.5 -124.5t-161.5 -51.5t-144 40t-51 103t39 106zM1000 1688q72 81 178.5 81t157 -40t50.5 -113.5t-68.5 -125t-161.5 -51.5t-144 40 t-51 103t39 106z" />
<glyph unicode="&#xd7;" d="M1024 -18h-50q-174 268 -285 435q-99 -112 -309 -359q-53 -58 -88 -58h-142q324 353 469 520q-35 52 -311 452q0 13 31.5 35.5t56.5 22.5h50q168 -263 263 -406q120 138 275 328q46 58 88 58h142q-286 -320 -435 -490q129 -192 333 -480q0 -13 -31.5 -35.5t-56.5 -22.5z " />
<glyph unicode="&#xd8;" horiz-adv-x="1535" d="M689 -20q146 122 217.5 356t71.5 492.5t-53 467.5q0 14 32.5 40.5t55.5 26.5q145 -28 247 -121q9 -8 17 -17q103 95 185 184l48 -56q24 -28 24 -54t-23 -43q-72 -54 -157 -125q100 -155 100 -380q0 -239 -120 -431q-133 -215 -366 -296q-128 -44 -279 -44zM888 1387 q-147 -123 -219 -356t-72 -493t55 -466q0 -14 -32.5 -41t-56.5 -27q-172 34 -279 149q-97 -90 -174 -174l-48 56q-24 28 -24 54t23 43q70 52 151 120q-90 159 -90 363q0 239 120 433q132 213 366 294q128 45 280 45z" />
<glyph unicode="&#xd9;" horiz-adv-x="1535" d="M1268 335q-29 -148 -140 -247q-122 -108 -338 -108q-385 0 -508 197q-69 109 -69 282q0 114 46 398t46 438q0 14 32 40t55 26h477q-156 -726 -156 -978q0 -241 237 -241q92 0 179 53.5t139 139.5zM1200 390q0 300 -32.5 511.5t-119.5 393.5q0 14 32 40t55 26h338 q-117 -530 -186 -904q-3 -15 -33.5 -41t-53.5 -26zM1287 1460q-353 25 -582 73q5 60 37.5 149.5t68.5 149.5q225 -105 507 -282q-12 -51 -31 -90z" />
<glyph unicode="&#xda;" horiz-adv-x="1535" d="M1268 335q-29 -148 -140 -247q-122 -108 -338 -108q-385 0 -508 197q-69 109 -69 282q0 114 46 398t46 438q0 14 32 40t55 26h477q-156 -726 -156 -978q0 -241 237 -241q92 0 179 53.5t139 139.5zM1200 390q0 300 -32.5 511.5t-119.5 393.5q0 14 32 40t55 26h338 q-117 -530 -186 -904q-3 -15 -33.5 -41t-53.5 -26zM744 1460q-19 39 -31 90q282 177 507 282q36 -60 68.5 -149.5t37.5 -149.5q-229 -48 -582 -73z" />
<glyph unicode="&#xdb;" horiz-adv-x="1535" d="M1268 335q-29 -148 -140 -247q-122 -108 -338 -108q-385 0 -508 197q-69 109 -69 282q0 114 46 398t46 438q0 14 32 40t55 26h477q-156 -726 -156 -978q0 -241 237 -241q92 0 179 53.5t139 139.5zM1200 390q0 300 -32.5 511.5t-119.5 393.5q0 14 32 40t55 26h338 q-117 -530 -186 -904q-3 -15 -33.5 -41t-53.5 -26zM600 1462q-33 47 -48 105q194 129 439 255h102q186 -109 393 -255q-22 -62 -60 -105q-241 30 -411 65q-223 -39 -415 -65z" />
<glyph unicode="&#xdc;" horiz-adv-x="1535" d="M1268 335q-29 -148 -140 -247q-122 -108 -338 -108q-385 0 -508 197q-69 109 -69 282q0 114 46 398t46 438q0 14 32 40t55 26h477q-156 -726 -156 -978q0 -241 237 -241q92 0 179 53.5t139 139.5zM1200 390q0 300 -32.5 511.5t-119.5 393.5q0 14 32 40t55 26h338 q-117 -530 -186 -904q-3 -15 -33.5 -41t-53.5 -26zM564 1688q72 81 196 81q89 0 140 -40.5t51 -113.5t-68.5 -124.5t-161.5 -51.5t-144 40t-51 103t38 106zM1121 1688q72 81 178.5 81t157 -40t50.5 -113.5t-68.5 -125t-161.5 -51.5t-144 40t-51 103t39 106z" />
<glyph unicode="&#xdd;" d="M771 0h-442q37 189 55 351q-83 441 -231 945q0 13 31.5 39t55.5 26h465q50 -516 204 -968q-30 -138 -49 -327q0 -13 -32.5 -39.5t-56.5 -26.5zM1010 608q-8 -17 -36.5 -42t-50.5 -25q92 341 92 674q0 54 -2 81q0 13 32.5 39t56.5 26h318q-150 -234 -410 -753zM611 1460 q-19 39 -31 90q282 177 507 282q36 -60 68.5 -149.5t37.5 -149.5q-229 -48 -582 -73z" />
<glyph unicode="&#xde;" horiz-adv-x="1438" d="M708 247q102 110 159.5 248t57.5 294.5t-82 306.5q0 14 32.5 41t55.5 27q221 -15 346 -129.5t125 -292.5q0 -110 -51.5 -206t-136.5 -160q-181 -136 -414 -136q-57 0 -92 7zM537 0h-465q138 597 195 1296q0 13 32.5 39t55.5 26h465q-139 -592 -196 -1295q0 -13 -32 -39.5 t-55 -26.5z" />
<glyph unicode="&#xdf;" horiz-adv-x="1717" d="M635 66q0 -13 -32 -39.5t-55 -26.5h-420q35 151 98 628q-69 26 -159 43q-9 14 -15.5 48.5t-6.5 54.5q123 35 209 71q10 75 11 81q33 233 162.5 350.5t372.5 117.5t501 -124q11 -42 14 -101q-44 3 -132 3t-167.5 -15t-135.5 -41.5t-96.5 -69t-64 -90t-38.5 -112.5 t-20 -128.5t-7.5 -146t-2.5 -212t-16 -291.5zM1315 1054q-57 -54 -57 -116.5t29.5 -126.5t73 -113.5t95 -103.5t94.5 -100q103 -108 103 -215q0 -132 -126.5 -209.5t-354.5 -77.5q26 58 26 105t-21.5 93.5t-56 86t-75.5 80t-82.5 82.5t-76.5 85q-77 98 -77 204 q0 159 130 240.5t376 85.5zM916 -6q-61 0 -95 30t-34 83t49.5 88.5t106.5 35.5t91.5 -30.5t34.5 -80.5t-45.5 -88t-107.5 -38z" />
<glyph unicode="&#xe0;" horiz-adv-x="1537" d="M1301 40q-195 -42 -419 -42q-51 69 -51 145t45 385.5t46 411.5q0 13 33 39t55 26q214 0 403 -57q-4 -32 -53 -254.5t-49 -357t72 -206.5q0 -14 -28 -46.5t-54 -43.5zM838 1019q-119 -88 -180.5 -239t-61.5 -296.5t32.5 -261t87.5 -154.5q0 -15 -32 -41.5t-55 -26.5 q-229 0 -367.5 115t-138.5 314q0 247 187 415q90 81 226.5 128t301.5 47zM1153 1145q-341 39 -566 116q12 62 63 177t91 167q226 -147 461 -355q-15 -62 -49 -105z" />
<glyph unicode="&#xe1;" horiz-adv-x="1537" d="M1301 40q-195 -42 -419 -42q-51 69 -51 145t45 385.5t46 411.5q0 13 33 39t55 26q214 0 403 -57q-4 -32 -53 -254.5t-49 -357t72 -206.5q0 -14 -28 -46.5t-54 -43.5zM838 1019q-119 -88 -180.5 -239t-61.5 -296.5t32.5 -261t87.5 -154.5q0 -15 -32 -41.5t-55 -26.5 q-229 0 -367.5 115t-138.5 314q0 247 187 415q90 81 226.5 128t301.5 47zM612 1145q-34 43 -49 105q235 208 461 355q40 -52 91 -167t63 -177q-225 -77 -566 -116z" />
<glyph unicode="&#xe2;" horiz-adv-x="1537" d="M1301 40q-195 -42 -419 -42q-51 69 -51 145t45 385.5t46 411.5q0 13 33 39t55 26q214 0 403 -57q-4 -32 -53 -254.5t-49 -357t72 -206.5q0 -14 -28 -46.5t-54 -43.5zM838 1019q-119 -88 -180.5 -239t-61.5 -296.5t32.5 -261t87.5 -154.5q0 -15 -32 -41.5t-55 -26.5 q-229 0 -367.5 115t-138.5 314q0 247 187 415q90 81 226.5 128t301.5 47zM484 1240q178 204 369 355h102q92 -94 139.5 -153.5t143.5 -201.5q-24 -54 -80 -105q-176 82 -281 138q-146 -64 -335 -138q-42 45 -58 105z" />
<glyph unicode="&#xe3;" horiz-adv-x="1537" d="M1301 40q-195 -42 -419 -42q-51 69 -51 145t45 385.5t46 411.5q0 13 33 39t55 26q214 0 403 -57q-4 -32 -53 -254.5t-49 -357t72 -206.5q0 -14 -28 -46.5t-54 -43.5zM838 1019q-119 -88 -180.5 -239t-61.5 -296.5t32.5 -261t87.5 -154.5q0 -15 -32 -41.5t-55 -26.5 q-229 0 -367.5 115t-138.5 314q0 247 187 415q90 81 226.5 128t301.5 47zM1006 1154q-79 0 -180.5 60.5t-167 60.5t-132.5 -6q-6 27 -6 54t4 50q116 184 262 184q57 0 99 -20.5t79 -41.5q105 -59 170 -59t132 6q6 -30 6 -55t-3 -49q-117 -184 -263 -184z" />
<glyph unicode="&#xe4;" horiz-adv-x="1537" d="M1301 40q-195 -42 -419 -42q-51 69 -51 145t45 385.5t46 411.5q0 13 33 39t55 26q214 0 403 -57q-4 -32 -53 -254.5t-49 -357t72 -206.5q0 -14 -28 -46.5t-54 -43.5zM838 1019q-119 -88 -180.5 -239t-61.5 -296.5t32.5 -261t87.5 -154.5q0 -15 -32 -41.5t-55 -26.5 q-229 0 -367.5 115t-138.5 314q0 247 187 415q90 81 226.5 128t301.5 47zM432 1397q73 88 195 88q88 0 139.5 -44.5t51.5 -118.5t-69 -130.5t-161 -56.5t-143.5 44.5t-51.5 108t39 109.5zM988 1397q75 88 179.5 88t155.5 -44.5t51 -118.5t-69 -130.5t-161 -56.5t-143.5 44.5 t-51.5 108t39 109.5z" />
<glyph unicode="&#xe5;" horiz-adv-x="1537" d="M1301 40q-195 -42 -419 -42q-51 69 -51 145t45 385.5t46 411.5q0 13 33 39t55 26q214 0 403 -57q-4 -32 -53 -254.5t-49 -357t72 -206.5q0 -14 -28 -46.5t-54 -43.5zM838 1019q-119 -88 -180.5 -239t-61.5 -296.5t32.5 -261t87.5 -154.5q0 -15 -32 -41.5t-55 -26.5 q-229 0 -367.5 115t-138.5 314q0 247 187 415q90 81 226.5 128t301.5 47zM880 1416q-36 0 -68 -24.5t-32 -60.5t22 -56.5t61 -20.5t69 26.5t30 60t-22.5 54.5t-59.5 21zM706 1504q91 66 196 66t169 -60t64 -159t-86 -175t-199.5 -76t-178 59.5t-64.5 135.5t28 127t71 82z " />
<glyph unicode="&#xe6;" horiz-adv-x="2103" d="M1568 1010q-124 -84 -196.5 -221t-72.5 -293t120 -254t350 -98q63 0 135 11q-47 -74 -181 -123.5t-292 -49.5t-266 40q-137 -24 -283 -24q-51 69 -51 145t45 385.5t46 411.5q0 13 33 39t55 26q97 0 223 -25q109 39 241 39q52 0 94 -9zM838 1019q-119 -88 -180.5 -239 t-61.5 -296.5t32.5 -261t87.5 -154.5q0 -15 -32 -41.5t-55 -26.5q-229 0 -367.5 115t-138.5 314q0 247 187 415q90 81 226.5 128t301.5 47zM1730 994q143 -26 220.5 -118.5t77.5 -207.5q0 -141 -123.5 -220t-318.5 -79q-61 0 -134 20q97 62 143 165t46 200t-19 170 q0 13 41.5 41t66.5 29z" />
<glyph unicode="&#xe7;" horiz-adv-x="1372" d="M1039 989q115 -24 184.5 -104t69.5 -160.5t-71 -119t-142 -38.5t-142 27q7 94 7 171.5t-13 158.5q3 22 40.5 43.5t66.5 21.5zM870 1016q-104 -80 -172.5 -217t-68.5 -261t30 -198t85 -119q109 -89 283 -89q88 0 188 23q-83 -99 -202 -136t-295 -37t-303.5 53t-204.5 163 t-77 268.5t82 290t219 202.5t302 71q53 0 134 -14zM416 -299q95 -46 195 -46t100 70t-121 70q-11 0 -56 -3q-23 29 -33 76q62 31 113 41.5t145.5 10.5t162 -45.5t67.5 -139t-68 -148t-218 -54.5t-284 67q-4 24 -4 56.5t1 44.5z" />
<glyph unicode="&#xe8;" d="M1013 994q136 -47 206.5 -131.5t70.5 -180.5q0 -131 -113 -222t-308 -91q-61 0 -134 20q106 66 143 172q32 92 32 216q0 24 -5 147q-1 13 40.5 41t67.5 29zM851 1010q-124 -84 -196.5 -221t-72.5 -293t120 -254t350 -98q63 0 135 11q-47 -74 -181 -123.5t-281 -49.5 t-251 29.5t-185.5 87.5t-128.5 151.5t-47 206t35 203.5t96 156t142 112q161 91 371 91q52 0 94 -9zM1060 1145q-341 39 -566 116q12 62 63 177t91 167q226 -147 461 -355q-15 -62 -49 -105z" />
<glyph unicode="&#xe9;" d="M1013 994q136 -47 206.5 -131.5t70.5 -180.5q0 -131 -113 -222t-308 -91q-61 0 -134 20q106 66 143 172q32 92 32 216q0 24 -5 147q-1 13 40.5 41t67.5 29zM851 1010q-124 -84 -196.5 -221t-72.5 -293t120 -254t350 -98q63 0 135 11q-47 -74 -181 -123.5t-281 -49.5 t-251 29.5t-185.5 87.5t-128.5 151.5t-47 206t35 203.5t96 156t142 112q161 91 371 91q52 0 94 -9zM519 1145q-34 43 -49 105q235 208 461 355q40 -52 91 -167t63 -177q-225 -77 -566 -116z" />
<glyph unicode="&#xea;" d="M1013 994q136 -47 206.5 -131.5t70.5 -180.5q0 -131 -113 -222t-308 -91q-61 0 -134 20q106 66 143 172q32 92 32 216q0 24 -5 147q-1 13 40.5 41t67.5 29zM851 1010q-124 -84 -196.5 -221t-72.5 -293t120 -254t350 -98q63 0 135 11q-47 -74 -181 -123.5t-281 -49.5 t-251 29.5t-185.5 87.5t-128.5 151.5t-47 206t35 203.5t96 156t142 112q161 91 371 91q52 0 94 -9zM391 1240q178 204 369 355h102q92 -94 139.5 -153.5t143.5 -201.5q-24 -54 -80 -105q-176 82 -281 138q-146 -64 -335 -138q-42 45 -58 105z" />
<glyph unicode="&#xeb;" d="M1013 994q136 -47 206.5 -131.5t70.5 -180.5q0 -131 -113 -222t-308 -91q-61 0 -134 20q106 66 143 172q32 92 32 216q0 24 -5 147q-1 13 40.5 41t67.5 29zM851 1010q-124 -84 -196.5 -221t-72.5 -293t120 -254t350 -98q63 0 135 11q-47 -74 -181 -123.5t-281 -49.5 t-251 29.5t-185.5 87.5t-128.5 151.5t-47 206t35 203.5t96 156t142 112q161 91 371 91q52 0 94 -9zM338 1397q74 88 196 88q88 0 139.5 -44.5t51.5 -118.5t-69 -130.5t-161 -56.5t-143.5 44.5t-51.5 108t38 109.5zM895 1397q75 88 179.5 88t155.5 -44.5t51 -118.5 t-69 -130.5t-161 -56.5t-143.5 44.5t-51.5 108t39 109.5z" />
<glyph unicode="&#xec;" horiz-adv-x="852" d="M97 0q87 368 133 928q0 13 33 39t55 26h419q-87 -374 -133 -927q0 -13 -32 -39.5t-55 -26.5h-420zM790 1145q-341 39 -566 116q12 62 63 177t91 167q226 -147 461 -355q-15 -62 -49 -105z" />
<glyph unicode="&#xed;" horiz-adv-x="852" d="M97 0q87 368 133 928q0 13 33 39t55 26h419q-87 -374 -133 -927q0 -13 -32 -39.5t-55 -26.5h-420zM250 1145q-34 43 -49 105q235 208 461 355q40 -52 91 -167t63 -177q-225 -77 -566 -116z" />
<glyph unicode="&#xee;" horiz-adv-x="852" d="M97 0q87 368 133 928q0 13 33 39t55 26h419q-87 -374 -133 -927q0 -13 -32 -39.5t-55 -26.5h-420zM121 1239q178 204 369 355h102q92 -94 139.5 -153.5t143.5 -201.5q-24 -54 -80 -105q-176 82 -281 138q-146 -64 -335 -138q-42 45 -58 105z" />
<glyph unicode="&#xef;" horiz-adv-x="852" d="M97 0q87 368 133 928q0 13 33 39t55 26h419q-87 -374 -133 -927q0 -13 -32 -39.5t-55 -26.5h-420zM70 1397q73 88 195 88q88 0 139.5 -44.5t51.5 -118.5t-69 -130.5t-161 -56.5t-143.5 44.5t-51.5 108t39 109.5zM626 1397q75 88 179.5 88t155.5 -44.5t51 -118.5 t-69 -130.5t-161 -56.5t-143.5 44.5t-51.5 108t39 109.5z" />
<glyph unicode="&#xf0;" horiz-adv-x="1412" d="M620 -25q114 126 169.5 304t55.5 377q0 312 -105 531q-103 -54 -219 -120l-20 62q0 25 22.5 56.5t35.5 31.5q101 33 138 48q-65 101 -149 168q1 17 20 42t41 25q154 -29 302 -146q132 69 236 129l20 -62q0 -25 -22.5 -56.5t-35.5 -31.5q-63 -20 -125 -43 q139 -133 224 -314t85 -347t-41 -279t-122 -198q-170 -177 -510 -177zM733 923q-249 -141 -249 -519q0 -191 119 -336q0 -15 -32 -41.5t-55 -26.5q-261 23 -372 208q-62 103 -62 222.5t43.5 216t116.5 158.5q152 130 356 130q92 0 135 -12z" />
<glyph unicode="&#xf1;" horiz-adv-x="1535" d="M515 0h-420q104 438 144 925q0 12 32 36.5t67.5 30.5t174 16.5t214.5 10.5q-81 -419 -125 -953q0 -13 -32 -39.5t-55 -26.5zM876 -10q-58 56 -58 144t44.5 336t44.5 305.5t-27.5 83t-71.5 25.5q9 60 34 90q37 18 116.5 33t147.5 15q133 0 199.5 -61t66.5 -193 q0 -74 -32 -260t-32 -228t3.5 -63t6 -33t13.5 -27.5t14 -19t20 -20t20 -19.5q0 -14 -29 -46.5t-53 -42.5q-128 -19 -427 -19zM981 1154q-79 0 -180.5 60.5t-167 60.5t-132.5 -6q-6 27 -6 54t4 50q116 184 262 184q57 0 99 -20.5t79 -41.5q105 -59 170 -59t132 6q6 -30 6 -55 t-3 -49q-117 -184 -263 -184z" />
<glyph unicode="&#xf2;" horiz-adv-x="1535" d="M835 1027q-240 -230 -240 -621q0 -166 44 -334q-1 -15 -32.5 -41t-53.5 -26q-168 23 -291 139q-129 122 -129 304.5t91.5 312t250.5 198t360 68.5zM700 -9q240 230 240 621q0 166 -44 334q1 15 32.5 41t53.5 26q168 -23 290 -139q130 -122 130 -304.5t-91.5 -312 t-250.5 -198t-360 -68.5zM1120 1145q-341 39 -566 116q12 62 63 177t91 167q226 -147 461 -355q-15 -62 -49 -105z" />
<glyph unicode="&#xf3;" horiz-adv-x="1535" d="M835 1027q-240 -230 -240 -621q0 -166 44 -334q-1 -15 -32.5 -41t-53.5 -26q-168 23 -291 139q-129 122 -129 304.5t91.5 312t250.5 198t360 68.5zM700 -9q240 230 240 621q0 166 -44 334q1 15 32.5 41t53.5 26q168 -23 290 -139q130 -122 130 -304.5t-91.5 -312 t-250.5 -198t-360 -68.5zM579 1145q-34 43 -49 105q235 208 461 355q40 -52 91 -167t63 -177q-225 -77 -566 -116z" />
<glyph unicode="&#xf4;" horiz-adv-x="1535" d="M835 1027q-240 -230 -240 -621q0 -166 44 -334q-1 -15 -32.5 -41t-53.5 -26q-168 23 -291 139q-129 122 -129 304.5t91.5 312t250.5 198t360 68.5zM700 -9q240 230 240 621q0 166 -44 334q1 15 32.5 41t53.5 26q168 -23 290 -139q130 -122 130 -304.5t-91.5 -312 t-250.5 -198t-360 -68.5zM451 1240q178 204 369 355h102q92 -94 139.5 -153.5t143.5 -201.5q-24 -54 -80 -105q-176 82 -281 138q-146 -64 -335 -138q-42 45 -58 105z" />
<glyph unicode="&#xf5;" horiz-adv-x="1535" d="M835 1027q-240 -230 -240 -621q0 -166 44 -334q-1 -15 -32.5 -41t-53.5 -26q-168 23 -291 139q-129 122 -129 304.5t91.5 312t250.5 198t360 68.5zM700 -9q240 230 240 621q0 166 -44 334q1 15 32.5 41t53.5 26q168 -23 290 -139q130 -122 130 -304.5t-91.5 -312 t-250.5 -198t-360 -68.5zM973 1154q-78 0 -180 60.5t-167.5 60.5t-132.5 -6q-6 27 -6 54t4 50q116 184 262 184q57 0 99 -20.5t79 -41.5q105 -59 170 -59t132 6q6 -30 6 -55t-3 -49q-117 -184 -263 -184z" />
<glyph unicode="&#xf6;" horiz-adv-x="1535" d="M835 1027q-240 -230 -240 -621q0 -166 44 -334q-1 -15 -32.5 -41t-53.5 -26q-168 23 -291 139q-129 122 -129 304.5t91.5 312t250.5 198t360 68.5zM700 -9q240 230 240 621q0 166 -44 334q1 15 32.5 41t53.5 26q168 -23 290 -139q130 -122 130 -304.5t-91.5 -312 t-250.5 -198t-360 -68.5zM399 1397q73 88 195 88q88 0 139.5 -44.5t51.5 -118.5t-69 -130.5t-161 -56.5t-143.5 44.5t-51.5 108t39 109.5zM955 1397q75 88 179.5 88t155.5 -44.5t51 -118.5t-69 -130.5t-161 -56.5t-143.5 44.5t-51.5 108t39 109.5z" />
<glyph unicode="&#xf7;" d="M728 731q-72 0 -112.5 28.5t-40.5 79.5t59 85.5t126.5 34.5t107.5 -29.5t40 -77.5t-54 -84.5t-126 -36.5zM1099 440q-425 0 -892 -15v64q0 25 22.5 56t35.5 32q474 0 892 15v-64q0 -25 -22.5 -56.5t-35.5 -31.5zM618 25q-72 0 -112.5 28.5t-40.5 79.5t59 85.5t126.5 34.5 t107.5 -29.5t40 -77.5t-54 -84.5t-126 -36.5z" />
<glyph unicode="&#xf8;" horiz-adv-x="1535" d="M835 1027q-240 -230 -240 -621q0 -166 44 -334q-1 -15 -32.5 -41t-53.5 -26q-161 22 -281 129q-98 -81 -159 -148l-48 56q-24 28 -24 55.5t23 41.5q63 40 129 88q-60 96 -60 221q0 183 91.5 312.5t250.5 198t360 68.5zM700 -9q240 230 240 621q0 166 -44 334 q1 15 32.5 41t53.5 26q117 -16 211 -77q95 80 156 146l48 -56q24 -28 24 -55.5t-23 -41.5q-53 -34 -108 -73q112 -118 112 -287q0 -182 -91.5 -311.5t-250.5 -198t-360 -68.5z" />
<glyph unicode="&#xf9;" horiz-adv-x="1532" d="M156 258q0 103 33.5 284t33.5 254t-47 103q0 16 29 58.5t50 42.5h391q19 -10 37 -36.5t18 -67.5t-43.5 -265.5t-43.5 -350.5q0 -64 32.5 -97.5t83.5 -33.5q-2 -13 -2 -33q0 -44 -12 -57q-49 -31 -129.5 -49.5t-154.5 -18.5q-276 0 -276 267zM911 2q-79 56 -79 137 t42.5 363t54.5 432q0 13 32.5 39.5t55.5 26.5h406q-54 -232 -87 -436t-33 -278t18.5 -109t58.5 -67q0 -14 -29 -46.5t-53 -42.5q-129 -19 -387 -19zM1137 1145q-341 39 -566 116q12 62 63 177t91 167q226 -147 461 -355q-15 -62 -49 -105z" />
<glyph unicode="&#xfa;" horiz-adv-x="1532" d="M156 258q0 103 33.5 284t33.5 254t-47 103q0 16 29 58.5t50 42.5h391q19 -10 37 -36.5t18 -67.5t-43.5 -265.5t-43.5 -350.5q0 -64 32.5 -97.5t83.5 -33.5q-2 -13 -2 -33q0 -44 -12 -57q-49 -31 -129.5 -49.5t-154.5 -18.5q-276 0 -276 267zM911 2q-79 56 -79 137 t42.5 363t54.5 432q0 13 32.5 39.5t55.5 26.5h406q-54 -232 -87 -436t-33 -278t18.5 -109t58.5 -67q0 -14 -29 -46.5t-53 -42.5q-129 -19 -387 -19zM596 1145q-34 43 -49 105q235 208 461 355q40 -52 91 -167t63 -177q-225 -77 -566 -116z" />
<glyph unicode="&#xfb;" horiz-adv-x="1532" d="M156 258q0 103 33.5 284t33.5 254t-47 103q0 16 29 58.5t50 42.5h391q19 -10 37 -36.5t18 -67.5t-43.5 -265.5t-43.5 -350.5q0 -64 32.5 -97.5t83.5 -33.5q-2 -13 -2 -33q0 -44 -12 -57q-49 -31 -129.5 -49.5t-154.5 -18.5q-276 0 -276 267zM911 2q-79 56 -79 137 t42.5 363t54.5 432q0 13 32.5 39.5t55.5 26.5h406q-54 -232 -87 -436t-33 -278t18.5 -109t58.5 -67q0 -14 -29 -46.5t-53 -42.5q-129 -19 -387 -19zM468 1240q178 204 369 355h102q92 -94 139.5 -153.5t143.5 -201.5q-24 -54 -80 -105q-176 82 -281 138q-146 -64 -335 -138 q-42 45 -58 105z" />
<glyph unicode="&#xfc;" horiz-adv-x="1532" d="M156 258q0 103 33.5 284t33.5 254t-47 103q0 16 29 58.5t50 42.5h391q19 -10 37 -36.5t18 -67.5t-43.5 -265.5t-43.5 -350.5q0 -64 32.5 -97.5t83.5 -33.5q-2 -13 -2 -33q0 -44 -12 -57q-49 -31 -129.5 -49.5t-154.5 -18.5q-276 0 -276 267zM911 2q-79 56 -79 137 t42.5 363t54.5 432q0 13 32.5 39.5t55.5 26.5h406q-54 -232 -87 -436t-33 -278t18.5 -109t58.5 -67q0 -14 -29 -46.5t-53 -42.5q-129 -19 -387 -19zM416 1397q73 88 195 88q88 0 139.5 -44.5t51.5 -118.5t-69 -130.5t-161 -56.5t-143.5 44.5t-51.5 108t39 109.5zM972 1397 q75 88 179.5 88t155.5 -44.5t51 -118.5t-69 -130.5t-161 -56.5t-143.5 44.5t-51.5 108t39 109.5z" />
<glyph unicode="&#xfd;" horiz-adv-x="1535" d="M178 314q0 82 29.5 235t29.5 221q0 106 -56 129q0 16 29 58.5t50 42.5h389q23 -8 39 -31.5t16 -65.5t-20 -135q-60 -281 -60 -417q0 -63 37.5 -97t90.5 -34q-8 -58 -34 -90q-108 -68 -252 -68q-288 0 -288 252zM932 942q0 12 31.5 33t56.5 21h393q-80 -382 -133 -907 q-40 -388 -242 -493q-122 -63 -322 -63q-31 0 -99 4q85 100 130.5 236.5t82 324t69.5 445t34 313.5t-1 86zM416 -438q-132 11 -211.5 61t-79.5 120.5t63 119.5q123 96 343 96q70 0 142 -12q-58 -56 -93 -122.5t-35 -113.5t9 -82q0 -15 -50.5 -41t-87.5 -26zM588 1145 q-34 43 -49 105q235 208 461 355q40 -52 91 -167t63 -177q-225 -77 -566 -116z" />
<glyph unicode="&#xfe;" horiz-adv-x="1535" d="M719 0q76 48 131 148q102 187 102 416t-108 388q0 15 31 41t54 26q133 0 242 -54t175 -158.5t66 -241.5q0 -251 -186.5 -408t-506.5 -157zM560 -354q0 -13 -32.5 -39t-54.5 -26h-421q113 612 161.5 936t92.5 801q0 13 32 39.5t55 26.5h421q-108 -534 -157 -875.5 t-97 -862.5z" />
<glyph unicode="&#xff;" horiz-adv-x="1535" d="M178 314q0 82 29.5 235t29.5 221q0 106 -56 129q0 16 29 58.5t50 42.5h389q23 -8 39 -31.5t16 -65.5t-20 -135q-60 -281 -60 -417q0 -63 37.5 -97t90.5 -34q-8 -58 -34 -90q-108 -68 -252 -68q-288 0 -288 252zM932 942q0 12 31.5 33t56.5 21h393q-80 -382 -133 -907 q-40 -388 -242 -493q-122 -63 -322 -63q-31 0 -99 4q85 100 130.5 236.5t82 324t69.5 445t34 313.5t-1 86zM416 -438q-132 11 -211.5 61t-79.5 120.5t63 119.5q123 96 343 96q70 0 142 -12q-58 -56 -93 -122.5t-35 -113.5t9 -82q0 -15 -50.5 -41t-87.5 -26zM408 1397 q73 88 195 88q88 0 139.5 -44.5t51.5 -118.5t-69 -130.5t-161 -56.5t-143.5 44.5t-51.5 108t39 109.5zM964 1397q75 88 179.5 88t155.5 -44.5t51 -118.5t-69 -130.5t-161 -56.5t-143.5 44.5t-51.5 108t39 109.5z" />
<glyph unicode="&#x100;" d="M1163 0h-465q-78 622 -197 1080q58 118 99 216q7 15 36.5 40t50.5 25h318q41 -302 110.5 -672.5t135.5 -622.5q0 -13 -32 -39.5t-56 -26.5zM364 177l3 -111q0 -13 -32.5 -39.5t-55.5 -26.5h-319q158 268 490 982q9 -26 9 -72.5t-13.5 -134.5t-34.5 -207.5t-31 -193.5 q144 -22 209 -49q0 -60 -20 -89q-104 -9 -205 -27v-32zM1112 1511q-355 0 -592 -15l30 219q4 25 25 56t33 32q388 0 592 15l-30 -219q-4 -26 -25 -57t-33 -31z" />
<glyph unicode="&#x101;" horiz-adv-x="1537" d="M1301 40q-195 -42 -419 -42q-51 69 -51 145t45 385.5t46 411.5q0 13 33 39t55 26q214 0 403 -57q-4 -32 -53 -254.5t-49 -357t72 -206.5q0 -14 -28 -46.5t-54 -43.5zM838 1019q-119 -88 -180.5 -239t-61.5 -296.5t32.5 -261t87.5 -154.5q0 -15 -32 -41.5t-55 -26.5 q-229 0 -367.5 115t-138.5 314q0 247 187 415q90 81 226.5 128t301.5 47zM1140 1217q-355 0 -592 -15l30 219q4 25 25 56t33 32q388 0 592 15l-30 -219q-4 -26 -25 -57t-33 -31z" />
<glyph unicode="&#x102;" d="M1163 0h-465q-78 622 -197 1080q58 118 99 216q7 15 36.5 40t50.5 25h318q41 -302 110.5 -672.5t135.5 -622.5q0 -13 -32 -39.5t-56 -26.5zM364 177l3 -111q0 -13 -32.5 -39.5t-55.5 -26.5h-319q158 268 490 982q9 -26 9 -72.5t-13.5 -134.5t-34.5 -207.5t-31 -193.5 q144 -22 209 -49q0 -60 -20 -89q-104 -9 -205 -27v-32zM1236 1854q29 -40 40 -84q-41 -153 -165.5 -236.5t-272.5 -83.5q-150 0 -257 86q-114 90 -114 258q19 36 63 85q96 -148 321 -148q101 0 204.5 33t180.5 90z" />
<glyph unicode="&#x103;" horiz-adv-x="1537" d="M1301 40q-195 -42 -419 -42q-51 69 -51 145t45 385.5t46 411.5q0 13 33 39t55 26q214 0 403 -57q-4 -32 -53 -254.5t-49 -357t72 -206.5q0 -14 -28 -46.5t-54 -43.5zM838 1019q-119 -88 -180.5 -239t-61.5 -296.5t32.5 -261t87.5 -154.5q0 -15 -32 -41.5t-55 -26.5 q-229 0 -367.5 115t-138.5 314q0 247 187 415q90 81 226.5 128t301.5 47zM1239 1580q29 -40 40 -84q-83 -372 -419 -372q-156 0 -253 106t-97 290q19 36 63 85q92 -214 297 -214t369 189z" />
<glyph unicode="&#x104;" d="M1163 0h-465q-78 622 -197 1080q58 118 99 216q7 15 36.5 40t50.5 25h318q41 -302 110.5 -672.5t135.5 -622.5q0 -13 -32 -39.5t-56 -26.5zM364 177l3 -111q0 -13 -32.5 -39.5t-55.5 -26.5h-319q158 268 490 982q9 -26 9 -72.5t-13.5 -134.5t-34.5 -207.5t-31 -193.5 q144 -22 209 -49q0 -60 -20 -89q-104 -9 -205 -27v-32zM1127 -454q-114 -92 -303 -92q-280 0 -280 192q0 118 69 229q58 91 148 191l110 23q-78 -136 -78 -252q0 -72 40 -115.5t124 -43.5t194 42q-7 -94 -24 -174z" />
<glyph unicode="&#x105;" horiz-adv-x="1537" d="M1301 40q-126 -27 -263 -37q-26 -35 -47 -70q-47 -79 -47 -135.5t41.5 -88t117 -31.5t185.5 42q-7 -94 -24 -174q-114 -92 -303 -92q-280 0 -280 192q0 154 168 326q14 15 30 30q-48 67 -48 141q0 76 45 385.5t46 411.5q0 13 33 39t55 26q214 0 403 -57 q-4 -32 -53 -254.5t-49 -357t72 -206.5q0 -14 -28 -46.5t-54 -43.5zM838 1019q-119 -88 -180.5 -239t-61.5 -296.5t32.5 -261t87.5 -154.5q0 -15 -32 -41.5t-55 -26.5q-229 0 -367.5 115t-138.5 314q0 247 187 415q90 81 226.5 128t301.5 47z" />
<glyph unicode="&#x106;" horiz-adv-x="1535" d="M1263 755q-38 186 -88 309.5t-144 230.5q2 18 34 42t54 24q174 -19 324 -72q-2 -58 -25 -216t-45 -251q-4 -16 -45 -41.5t-65 -25.5zM1356 505q-19 -207 -63 -414q-56 -50 -184 -80.5t-293 -30.5q145 104 232.5 208.5t177.5 259.5q22 22 63.5 39.5t66.5 17.5zM754 48 q0 -15 -32 -41.5t-56 -26.5q-215 39 -365 196q-73 77 -115.5 184.5t-42.5 229t30 235t94.5 216t156.5 179.5q198 167 509 167q24 0 38 -1q-146 -126 -228.5 -363.5t-82.5 -513t94 -461.5zM683 1460q-19 39 -31 90q282 177 507 282q36 -60 68.5 -149.5t37.5 -149.5 q-229 -48 -582 -73z" />
<glyph unicode="&#x107;" horiz-adv-x="1372" d="M1039 989q115 -24 184.5 -104t69.5 -160.5t-71 -119t-142 -38.5t-142 27q7 94 7 171.5t-13 158.5q3 22 40.5 43.5t66.5 21.5zM870 1016q-104 -80 -172.5 -217t-68.5 -261t30 -198t85 -119q109 -89 283 -89q88 0 188 23q-83 -99 -202 -136t-295 -37t-303.5 53t-204.5 163 t-77 268.5t82 290t219 202.5t302 71q53 0 134 -14zM526 1145q-34 43 -49 105q235 208 461 355q40 -52 91 -167t63 -177q-225 -77 -566 -116z" />
<glyph unicode="&#x108;" horiz-adv-x="1535" d="M1263 755q-38 186 -88 309.5t-144 230.5q2 18 34 42t54 24q174 -19 324 -72q-2 -58 -25 -216t-45 -251q-4 -16 -45 -41.5t-65 -25.5zM1356 505q-19 -207 -63 -414q-56 -50 -184 -80.5t-293 -30.5q145 104 232.5 208.5t177.5 259.5q22 22 63.5 39.5t66.5 17.5zM754 48 q0 -15 -32 -41.5t-56 -26.5q-215 39 -365 196q-73 77 -115.5 184.5t-42.5 229t30 235t94.5 216t156.5 179.5q198 167 509 167q24 0 38 -1q-146 -126 -228.5 -363.5t-82.5 -513t94 -461.5zM539 1462q-33 47 -48 105q194 129 439 255h102q186 -109 393 -255q-22 -62 -60 -105 q-241 30 -411 65q-223 -39 -415 -65z" />
<glyph unicode="&#x109;" horiz-adv-x="1372" d="M1039 989q115 -24 184.5 -104t69.5 -160.5t-71 -119t-142 -38.5t-142 27q7 94 7 171.5t-13 158.5q3 22 40.5 43.5t66.5 21.5zM870 1016q-104 -80 -172.5 -217t-68.5 -261t30 -198t85 -119q109 -89 283 -89q88 0 188 23q-83 -99 -202 -136t-295 -37t-303.5 53t-204.5 163 t-77 268.5t82 290t219 202.5t302 71q53 0 134 -14zM398 1239q178 204 369 355h102q92 -94 139.5 -153.5t143.5 -201.5q-24 -54 -80 -105q-176 82 -281 138q-146 -64 -335 -138q-42 45 -58 105z" />
<glyph unicode="&#x10a;" horiz-adv-x="1535" d="M1263 755q-38 186 -88 309.5t-144 230.5q2 18 34 42t54 24q174 -19 324 -72q-2 -58 -25 -216t-45 -251q-4 -16 -45 -41.5t-65 -25.5zM1356 505q-19 -207 -63 -414q-56 -50 -184 -80.5t-293 -30.5q145 104 232.5 208.5t177.5 259.5q22 22 63.5 39.5t66.5 17.5zM754 48 q0 -15 -32 -41.5t-56 -26.5q-215 39 -365 196q-73 77 -115.5 184.5t-42.5 229t30 235t94.5 216t156.5 179.5q198 167 509 167q24 0 38 -1q-146 -126 -228.5 -363.5t-82.5 -513t94 -461.5zM780 1741q78 88 206 88q93 0 147 -45t54 -118.5t-72.5 -130t-169 -56.5t-151 44.5 t-54.5 108t40 109.5z" />
<glyph unicode="&#x10b;" horiz-adv-x="1372" d="M1039 989q115 -24 184.5 -104t69.5 -160.5t-71 -119t-142 -38.5t-142 27q7 94 7 171.5t-13 158.5q3 22 40.5 43.5t66.5 21.5zM870 1016q-104 -80 -172.5 -217t-68.5 -261t30 -198t85 -119q109 -89 283 -89q88 0 188 23q-83 -99 -202 -136t-295 -37t-303.5 53t-204.5 163 t-77 268.5t82 290t219 202.5t302 71q53 0 134 -14zM608 1397q78 88 206 88q93 0 147 -45t54 -118.5t-72.5 -130t-169 -56.5t-151 44.5t-54.5 108t40 109.5z" />
<glyph unicode="&#x10c;" horiz-adv-x="1535" d="M1263 755q-38 186 -88 309.5t-144 230.5q2 18 34 42t54 24q174 -19 324 -72q-2 -58 -25 -216t-45 -251q-4 -16 -45 -41.5t-65 -25.5zM1356 505q-19 -207 -63 -414q-56 -50 -184 -80.5t-293 -30.5q145 104 232.5 208.5t177.5 259.5q22 22 63.5 39.5t66.5 17.5zM754 48 q0 -15 -32 -41.5t-56 -26.5q-215 39 -365 196q-73 77 -115.5 184.5t-42.5 229t30 235t94.5 216t156.5 179.5q198 167 509 167q24 0 38 -1q-146 -126 -228.5 -363.5t-82.5 -513t94 -461.5zM1370 1822q33 -47 48 -105q-194 -129 -439 -255h-102q-186 109 -393 255 q22 62 60 105q223 -27 411 -65q216 38 415 65z" />
<glyph unicode="&#x10d;" horiz-adv-x="1372" d="M1039 989q115 -24 184.5 -104t69.5 -160.5t-71 -119t-142 -38.5t-142 27q7 94 7 171.5t-13 158.5q3 22 40.5 43.5t66.5 21.5zM870 1016q-104 -80 -172.5 -217t-68.5 -261t30 -198t85 -119q109 -89 283 -89q88 0 188 23q-83 -99 -202 -136t-295 -37t-303.5 53t-204.5 163 t-77 268.5t82 290t219 202.5t302 71q53 0 134 -14zM1190 1500q-178 -204 -369 -355h-102q-92 94 -139.5 153.5t-143.5 201.5q24 54 80 105q158 -74 280 -138q149 65 336 138q42 -45 58 -105z" />
<glyph unicode="&#x10e;" horiz-adv-x="1705" d="M746 -20q88 63 163 206t118.5 325t43.5 357q0 277 -108 439q0 15 32 42t55 27q108 0 205.5 -44.5t169.5 -123.5t114.5 -195.5t42.5 -244.5t-31.5 -240t-99 -212t-164 -174.5t-236 -118t-305.5 -43.5zM597 -8q-172 0 -454 12q135 543 195 1281q0 12 32.5 37t55.5 27 q298 25 456 25q-141 -608 -197 -1315q0 -14 -32 -40.5t-56 -26.5zM1329 1822q33 -47 48 -105q-194 -129 -439 -255h-102q-186 109 -393 255q22 62 60 105q223 -27 411 -65q216 38 415 65z" />
<glyph unicode="&#x10f;" horiz-adv-x="1618" d="M1472 932q17 82 39.5 217t23.5 157t33 48.5t55 26.5h137q-11 -52 -28 -135.5t-24.5 -116.5t-22.5 -78.5t-29 -60t-40 -32.5q-39 -26 -144 -26zM834 1019q-119 -88 -178.5 -238.5t-59.5 -296.5t32.5 -261.5t87.5 -154.5q0 -15 -32 -41.5t-55 -26.5q-227 0 -366.5 119 t-139.5 321q0 242 187 408q89 79 224.5 125t299.5 46zM1293 68q0 -14 -32 -41t-56 -27h-402q44 185 95 609t76 709q0 13 32 39.5t55 26.5h421q-53 -220 -110 -634.5t-79 -681.5z" />
<glyph unicode="&#x110;" horiz-adv-x="1705" d="M597 -8q-172 0 -454 12q60 241 105 521q-102 -13 -173 -25v32q0 25 22.5 56.5t35.5 31.5q61 0 130 3q46 308 75 662q0 12 32.5 37t55.5 27q298 25 456 25q-80 -346 -133 -724q101 11 168 28v-41q0 -24 -21.5 -55.5t-34.5 -31.5q-66 0 -126 -2q-30 -238 -50 -489 q0 -14 -32 -40.5t-56 -26.5zM746 -20q88 63 163 206t118.5 325t43.5 357q0 277 -108 439q0 15 32 42t55 27q108 0 205.5 -44.5t169.5 -123.5t114.5 -195.5t42.5 -244.5t-31.5 -240t-99 -212t-164 -174.5t-236 -118t-305.5 -43.5z" />
<glyph unicode="&#x111;" horiz-adv-x="1537" d="M1293 68q0 -14 -32 -41t-56 -27h-402q44 185 95 609q35 296 58 524q-109 -13 -183 -26v32q0 25 22.5 56.5t35.5 31.5q63 0 135 3q4 45 8 88q0 13 32 39.5t55 26.5h421q-14 -57 -28 -126q97 10 161 27v-41q0 -24 -21.5 -55.5t-34.5 -31.5q-65 0 -124 -2q-31 -171 -63 -406 q-57 -414 -79 -681zM834 1019q-119 -88 -178.5 -238.5t-59.5 -296.5t32.5 -261.5t87.5 -154.5q0 -15 -32 -41.5t-55 -26.5q-227 0 -366.5 119t-139.5 321q0 242 187 408q89 79 224.5 125t299.5 46z" />
<glyph unicode="&#x112;" horiz-adv-x="1364" d="M718 692q238 -26 348 -59q0 -55 -23 -81q-164 -10 -352 -52q-27 -210 -45 -434q0 -13 -32 -39.5t-55 -26.5h-466q134 485 198 1296q0 13 33 39t56 26h464q-76 -330 -126 -669zM1148 755q-24 151 -91 301t-135 225q5 48 29 80h363q-7 -97 -30 -260.5t-49 -278.5 q-4 -17 -34 -42t-53 -25zM1102 411q11 14 50 40t61 26q-34 -297 -64 -405q-9 -20 -36 -46t-44 -26h-367q246 165 400 411zM1125 1511q-355 0 -592 -15l30 219q4 25 25 56t33 32q388 0 592 15l-30 -219q-4 -26 -25 -57t-33 -31z" />
<glyph unicode="&#x113;" d="M1013 994q136 -47 206.5 -131.5t70.5 -180.5q0 -131 -113 -222t-308 -91q-61 0 -134 20q106 66 143 172q32 92 32 216q0 24 -5 147q-1 13 40.5 41t67.5 29zM851 1010q-124 -84 -196.5 -221t-72.5 -293t120 -254t350 -98q63 0 135 11q-47 -74 -181 -123.5t-281 -49.5 t-251 29.5t-185.5 87.5t-128.5 151.5t-47 206t35 203.5t96 156t142 112q161 91 371 91q52 0 94 -9zM1047 1217q-355 0 -592 -15l30 219q4 25 25 56t33 32q388 0 592 15l-30 -219q-4 -26 -25 -57t-33 -31z" />
<glyph unicode="&#x114;" horiz-adv-x="1364" d="M718 692q238 -26 348 -59q0 -55 -23 -81q-164 -10 -352 -52q-27 -210 -45 -434q0 -13 -32 -39.5t-55 -26.5h-466q134 485 198 1296q0 13 33 39t56 26h464q-76 -330 -126 -669zM1148 755q-24 151 -91 301t-135 225q5 48 29 80h363q-7 -97 -30 -260.5t-49 -278.5 q-4 -17 -34 -42t-53 -25zM1102 411q11 14 50 40t61 26q-34 -297 -64 -405q-9 -20 -36 -46t-44 -26h-367q246 165 400 411zM1249 1854q29 -40 40 -84q-41 -153 -165.5 -236.5t-272.5 -83.5q-150 0 -257 86q-114 90 -114 258q19 36 63 85q96 -148 321 -148q101 0 204.5 33 t180.5 90z" />
<glyph unicode="&#x115;" d="M1013 994q136 -47 206.5 -131.5t70.5 -180.5q0 -131 -113 -222t-308 -91q-61 0 -134 20q106 66 143 172q32 92 32 216q0 24 -5 147q-1 13 40.5 41t67.5 29zM851 1010q-124 -84 -196.5 -221t-72.5 -293t120 -254t350 -98q63 0 135 11q-47 -74 -181 -123.5t-281 -49.5 t-251 29.5t-185.5 87.5t-128.5 151.5t-47 206t35 203.5t96 156t142 112q161 91 371 91q52 0 94 -9zM1146 1580q29 -40 40 -84q-83 -372 -419 -372q-156 0 -253 106t-97 290q19 36 63 85q92 -214 297 -214t369 189z" />
<glyph unicode="&#x116;" horiz-adv-x="1364" d="M718 692q238 -26 348 -59q0 -55 -23 -81q-164 -10 -352 -52q-27 -210 -45 -434q0 -13 -32 -39.5t-55 -26.5h-466q134 485 198 1296q0 13 33 39t56 26h464q-76 -330 -126 -669zM1148 755q-24 151 -91 301t-135 225q5 48 29 80h363q-7 -97 -30 -260.5t-49 -278.5 q-4 -17 -34 -42t-53 -25zM1102 411q11 14 50 40t61 26q-34 -297 -64 -405q-9 -20 -36 -46t-44 -26h-367q246 165 400 411zM692 1741q78 88 206 88q93 0 147 -45t54 -118.5t-72.5 -130t-169 -56.5t-151 44.5t-54.5 108t40 109.5z" />
<glyph unicode="&#x117;" d="M1013 994q136 -47 206.5 -131.5t70.5 -180.5q0 -131 -113 -222t-308 -91q-61 0 -134 20q106 66 143 172q32 92 32 216q0 24 -5 147q-1 13 40.5 41t67.5 29zM851 1010q-124 -84 -196.5 -221t-72.5 -293t120 -254t350 -98q63 0 135 11q-47 -74 -181 -123.5t-281 -49.5 t-251 29.5t-185.5 87.5t-128.5 151.5t-47 206t35 203.5t96 156t142 112q161 91 371 91q52 0 94 -9zM602 1397q77 88 205 88q93 0 147 -45t54 -118.5t-72.5 -130t-169 -56.5t-151 44.5t-54.5 108t41 109.5z" />
<glyph unicode="&#x118;" horiz-adv-x="1364" d="M718 692q238 -26 348 -59q0 -55 -23 -81q-164 -10 -352 -52q-27 -210 -45 -434q0 -13 -32 -39.5t-55 -26.5h-466q134 485 198 1296q0 13 33 39t56 26h464q-76 -330 -126 -669zM1102 411q11 14 50 40t61 26q-34 -297 -64 -405q-9 -20 -36 -46t-44 -26h-206 q-27 -32 -50 -65q-56 -80 -56 -137t41.5 -88.5t117.5 -31.5t185 42q-7 -94 -24 -174q-114 -92 -303 -92q-280 0 -280 192q0 114 93.5 234t205.5 186q184 146 309 345zM1148 755q-24 151 -91 301t-135 225q5 48 29 80h363q-7 -97 -30 -260.5t-49 -278.5q-4 -17 -34 -42 t-53 -25z" />
<glyph unicode="&#x119;" d="M851 1010q-124 -84 -196.5 -221t-72.5 -293t120 -254t350 -98q63 0 135 11q-47 -74 -181 -124q-125 -45 -261 -49q46 29 98 52l194 10q-97 -36 -177.5 -117.5t-80.5 -136.5q0 -112 147 -112q88 0 197 42q-7 -94 -24 -174q-114 -92 -303 -92q-280 0 -280 192q0 116 96 223 q60 65 133 113h-20q-147 0 -251 29.5t-185.5 87.5t-128.5 151.5t-47 206t35 203.5t96 156t142 112q161 91 371 91q52 0 94 -9zM1013 994q136 -47 206.5 -131.5t70.5 -180.5q0 -131 -113 -222t-308 -91q-61 0 -134 20q106 66 143 172q32 92 32 216q0 24 -5 147q-1 13 40.5 41 t67.5 29z" />
<glyph unicode="&#x11a;" horiz-adv-x="1364" d="M718 692q238 -26 348 -59q0 -55 -23 -81q-164 -10 -352 -52q-27 -210 -45 -434q0 -13 -32 -39.5t-55 -26.5h-466q134 485 198 1296q0 13 33 39t56 26h464q-76 -330 -126 -669zM1148 755q-24 151 -91 301t-135 225q5 48 29 80h363q-7 -97 -30 -260.5t-49 -278.5 q-4 -17 -34 -42t-53 -25zM1102 411q11 14 50 40t61 26q-34 -297 -64 -405q-9 -20 -36 -46t-44 -26h-367q246 165 400 411zM1282 1822q33 -47 48 -105q-194 -129 -439 -255h-102q-186 109 -393 255q22 62 60 105q223 -27 411 -65q216 38 415 65z" />
<glyph unicode="&#x11b;" d="M1013 994q136 -47 206.5 -131.5t70.5 -180.5q0 -131 -113 -222t-308 -91q-61 0 -134 20q106 66 143 172q32 92 32 216q0 24 -5 147q-1 13 40.5 41t67.5 29zM851 1010q-124 -84 -196.5 -221t-72.5 -293t120 -254t350 -98q63 0 135 11q-47 -74 -181 -123.5t-281 -49.5 t-251 29.5t-185.5 87.5t-128.5 151.5t-47 206t35 203.5t96 156t142 112q161 91 371 91q52 0 94 -9zM1183 1500q-178 -204 -369 -355h-102q-92 94 -139.5 153.5t-143.5 201.5q24 54 80 105q158 -74 280 -138q149 65 336 138q42 -45 58 -105z" />
<glyph unicode="&#x11c;" horiz-adv-x="1535" d="M832 523q3 25 18.5 57.5t34.5 33.5q220 11 518 11q-29 -298 -80 -511q-12 -16 -50 -45.5t-54 -37.5q-57 -17 -174 -34t-229 -17q76 41 158.5 167.5t82.5 196t-73 124.5t-152 55zM1263 755q-38 186 -88 309.5t-144 230.5q2 18 34 42t54 24q175 -19 325 -72 q-2 -57 -25.5 -215t-45.5 -252q-4 -16 -44.5 -41.5t-65.5 -25.5zM754 48q0 -15 -31.5 -41.5t-56.5 -26.5q-215 39 -365 196q-73 77 -115.5 184.5t-42.5 229t30 235t94.5 216t156 179.5t223 122t287.5 45q23 0 37 -1q-146 -126 -228 -363.5t-82 -512t93 -462.5zM540 1462 q-33 47 -48 105q194 129 439 255h102q186 -109 393 -255q-22 -62 -60 -105q-241 30 -411 65q-223 -39 -415 -65z" />
<glyph unicode="&#x11d;" horiz-adv-x="1536" d="M868 1019q-106 -77 -184 -225.5t-78 -293.5q0 -187 126 -289q0 -15 -32 -41.5t-55 -26.5q-369 0 -466 249q-27 69 -27 155.5t38 170.5t111 152.5t192 109.5t269 41q34 0 106 -2zM930 942q0 13 32 41t56 28q59 0 173 -15.5t220 -47.5q-61 -296 -139 -920 q-62 -495 -547 -495q-74 0 -135 8q87 81 136 197q56 134 76 226q67 306 97.5 580.5t30.5 397.5zM416 -435q-121 12 -207 75t-86 138t59 127q110 98 309 98q65 0 122 -13q-53 -53 -85 -130t-32 -137t8 -91q0 -15 -32.5 -41t-55.5 -26zM454 1240q178 204 369 355h102 q92 -94 139.5 -153.5t143.5 -201.5q-24 -54 -80 -105q-176 82 -281 138q-146 -64 -335 -138q-42 45 -58 105z" />
<glyph unicode="&#x11e;" horiz-adv-x="1535" d="M832 523q3 25 18.5 57.5t34.5 33.5q220 11 518 11q-29 -298 -80 -511q-12 -16 -50 -45.5t-54 -37.5q-57 -17 -174 -34t-229 -17q76 41 158.5 167.5t82.5 196t-73 124.5t-152 55zM1263 755q-38 186 -88 309.5t-144 230.5q2 18 34 42t54 24q175 -19 325 -72 q-2 -57 -25.5 -215t-45.5 -252q-4 -16 -44.5 -41.5t-65.5 -25.5zM754 48q0 -15 -31.5 -41.5t-56.5 -26.5q-215 39 -365 196q-73 77 -115.5 184.5t-42.5 229t30 235t94.5 216t156 179.5t223 122t287.5 45q23 0 37 -1q-146 -126 -228 -363.5t-82 -512t93 -462.5zM1338 1854 q29 -40 40 -84q-41 -153 -165.5 -236.5t-272.5 -83.5q-150 0 -257 86q-114 90 -114 258q19 36 63 85q96 -148 321 -148q101 0 204.5 33t180.5 90z" />
<glyph unicode="&#x11f;" horiz-adv-x="1536" d="M868 1019q-106 -77 -184 -225.5t-78 -293.5q0 -187 126 -289q0 -15 -32 -41.5t-55 -26.5q-369 0 -466 249q-27 69 -27 155.5t38 170.5t111 152.5t192 109.5t269 41q34 0 106 -2zM930 942q0 13 32 41t56 28q59 0 173 -15.5t220 -47.5q-61 -296 -139 -920 q-62 -495 -547 -495q-74 0 -135 8q87 81 136 197q56 134 76 226q67 306 97.5 580.5t30.5 397.5zM416 -435q-121 12 -207 75t-86 138t59 127q110 98 309 98q65 0 122 -13q-53 -53 -85 -130t-32 -137t8 -91q0 -15 -32.5 -41t-55.5 -26zM1209 1580q29 -40 40 -84 q-83 -372 -419 -372q-156 0 -253 106t-97 290q19 36 63 85q92 -214 297 -214t369 189z" />
<glyph unicode="&#x120;" horiz-adv-x="1535" d="M832 523q3 25 18.5 57.5t34.5 33.5q220 11 518 11q-29 -298 -80 -511q-12 -16 -50 -45.5t-54 -37.5q-57 -17 -174 -34t-229 -17q76 41 158.5 167.5t82.5 196t-73 124.5t-152 55zM1263 755q-38 186 -88 309.5t-144 230.5q2 18 34 42t54 24q175 -19 325 -72 q-2 -57 -25.5 -215t-45.5 -252q-4 -16 -44.5 -41.5t-65.5 -25.5zM754 48q0 -15 -31.5 -41.5t-56.5 -26.5q-215 39 -365 196q-73 77 -115.5 184.5t-42.5 229t30 235t94.5 216t156 179.5t223 122t287.5 45q23 0 37 -1q-146 -126 -228 -363.5t-82 -512t93 -462.5zM782 1741 q77 88 205 88q93 0 147 -45t54 -118.5t-72.5 -130t-169 -56.5t-151 44.5t-54.5 108t41 109.5z" />
<glyph unicode="&#x121;" horiz-adv-x="1536" d="M868 1019q-106 -77 -184 -225.5t-78 -293.5q0 -187 126 -289q0 -15 -32 -41.5t-55 -26.5q-369 0 -466 249q-27 69 -27 155.5t38 170.5t111 152.5t192 109.5t269 41q34 0 106 -2zM930 942q0 13 32 41t56 28q59 0 173 -15.5t220 -47.5q-61 -296 -139 -920 q-62 -495 -547 -495q-74 0 -135 8q87 81 136 197q56 134 76 226q67 306 97.5 580.5t30.5 397.5zM416 -435q-121 12 -207 75t-86 138t59 127q110 98 309 98q65 0 122 -13q-53 -53 -85 -130t-32 -137t8 -91q0 -15 -32.5 -41t-55.5 -26zM664 1397q78 88 206 88q93 0 147 -45 t54 -118.5t-72.5 -130t-169 -56.5t-151 44.5t-54.5 108t40 109.5z" />
<glyph unicode="&#x122;" horiz-adv-x="1535" d="M832 523q3 25 18.5 57.5t34.5 33.5q220 11 518 11q-29 -298 -80 -511q-12 -16 -50 -45.5t-54 -37.5q-57 -17 -174 -34t-229 -17q76 41 158.5 167.5t82.5 196t-73 124.5t-152 55zM1263 755q-38 186 -88 309.5t-144 230.5q2 18 34 42t54 24q175 -19 325 -72 q-2 -57 -25.5 -215t-45.5 -252q-4 -16 -44.5 -41.5t-65.5 -25.5zM754 48q0 -15 -31.5 -41.5t-56.5 -26.5q-215 39 -365 196q-73 77 -115.5 184.5t-42.5 229t30 235t94.5 216t156 179.5t223 122t287.5 45q23 0 37 -1q-146 -126 -228 -363.5t-82 -512t93 -462.5zM521 -222 q0 67 81 112.5t181.5 45.5t155 -37.5t54.5 -93t-22.5 -104.5t-52.5 -83q-66 -71 -88 -79.5t-83 -8.5t-100 3q28 68 28 96.5t-24 44t-53 25t-53 30t-24 49.5z" />
<glyph unicode="&#x123;" horiz-adv-x="1536" d="M868 1019q-106 -77 -184 -225.5t-78 -293.5q0 -187 126 -289q0 -15 -32 -41.5t-55 -26.5q-369 0 -466 249q-27 69 -27 155.5t38 170.5t111 152.5t192 109.5t269 41q34 0 106 -2zM930 942q0 13 32 41t56 28q59 0 173 -15.5t220 -47.5q-61 -296 -139 -920 q-62 -495 -547 -495q-74 0 -135 8q87 81 136 197q56 134 76 226q67 306 97.5 580.5t30.5 397.5zM416 -435q-121 12 -207 75t-86 138t59 127q110 98 309 98q65 0 122 -13q-53 -53 -85 -130t-32 -137t8 -91q0 -15 -32.5 -41t-55.5 -26zM1177 1264q0 -67 -81 -112.5 t-181.5 -45.5t-155 37.5t-54.5 93t22.5 104.5t52.5 83q66 71 88.5 79.5t83 8.5t99.5 -3q-28 -68 -28 -96.5t24 -44t53 -25t53 -30t24 -49.5z" />
<glyph unicode="&#x124;" horiz-adv-x="1707" d="M588 0h-455q141 606 196 1296q0 13 32.5 39t55.5 26h454q-73 -308 -124 -660q138 -27 177 -42q0 -62 -23 -91q-103 -8 -176 -23q-31 -244 -50 -479q0 -13 -32 -39.5t-55 -26.5zM1331 0h-454q139 595 196 1296q0 13 32 39t55 26h454q-139 -592 -196 -1295 q0 -13 -32.5 -39.5t-54.5 -26.5zM594 1462q-33 47 -48 105q194 129 439 255h102q186 -109 393 -255q-22 -62 -60 -105q-241 30 -411 65q-223 -39 -415 -65z" />
<glyph unicode="&#x125;" horiz-adv-x="1535" d="M870 -10q-58 56 -58 144t44.5 336t44.5 305.5t-27.5 83t-71.5 25.5q9 60 34 90q37 18 116.5 33t147.5 15q133 0 199.5 -61t66.5 -193q0 -74 -32 -260t-32 -228t3.5 -63t6 -33t13.5 -27.5t14 -19t20 -20t20 -19.5q0 -14 -29 -46.5t-53 -42.5q-128 -19 -427 -19zM601 68 q0 -14 -32 -41t-56 -27h-412q44 188 101.5 628t79.5 690q0 13 32 39.5t55 26.5h421q-53 -220 -110 -634.5t-79 -681.5zM202 1462q-33 47 -48 105q194 129 439 255h102q186 -109 393 -255q-22 -62 -60 -105q-241 30 -411 65q-223 -39 -415 -65z" />
<glyph unicode="&#x126;" horiz-adv-x="1707" d="M588 0h-455q95 409 151 856q-109 -13 -183 -26v32q0 25 22.5 56.5t35.5 31.5q64 0 136 3q20 168 34 343q0 13 32.5 39t55.5 26h454q-73 -308 -124 -660q138 -27 177 -42q0 -62 -23 -91q-103 -8 -176 -23q-31 -244 -50 -479q0 -13 -32 -39.5t-55 -26.5zM1331 0h-454 q139 595 196 1296q0 13 32 39t55 26h454q-44 -186 -79 -382q106 11 175 29v-41q0 -24 -21.5 -55.5t-34.5 -31.5q-72 0 -137 -2q-65 -385 -99 -812q0 -13 -32.5 -39.5t-54.5 -26.5z" />
<glyph unicode="&#x127;" horiz-adv-x="1535" d="M601 68q0 -14 -32 -41t-56 -27h-412q44 188 101 628q37 280 59 483q-126 -15 -208 -29v32q0 25 22.5 56.5t35.5 31.5q74 0 160 4q6 61 11 112q0 13 32 39.5t55 26.5h421q-17 -71 -35 -163q131 11 212 32v-41q0 -24 -21.5 -55.5t-34.5 -31.5q-93 0 -174 -3 q-28 -161 -57 -373q-57 -414 -79 -681zM870 -10q-58 56 -58 144t44.5 336t44.5 305.5t-27.5 83t-71.5 25.5q9 60 34 90q37 18 116.5 33t147.5 15q133 0 199.5 -61t66.5 -193q0 -74 -32 -260t-32 -228t3.5 -63t6 -33t13.5 -27.5t14 -19t20 -20t20 -19.5q0 -14 -29 -46.5 t-53 -42.5q-128 -19 -427 -19z" />
<glyph unicode="&#x128;" horiz-adv-x="852" d="M537 0h-465q138 597 195 1296q0 13 32.5 39t55.5 26h465q-139 -592 -196 -1295q0 -13 -32 -39.5t-55 -26.5zM167 1503q-6 27 -6 54t4 50q60 94 131 121q60 23 127 23t210.5 -35.5t205 -35.5t128.5 6q6 -30 6 -55t-3 -49q-57 -89 -120 -116.5t-135.5 -27.5t-216.5 35.5 t-204 35.5t-127 -6z" />
<glyph unicode="&#x129;" horiz-adv-x="852" d="M97 0q87 368 133 928q0 13 33 39t55 26h419q-87 -374 -133 -927q0 -13 -32 -39.5t-55 -26.5h-420zM644 1154q-79 0 -180.5 60.5t-167 60.5t-132.5 -6q-6 27 -6 54t4 50q116 184 262 184q57 0 99 -20.5t79 -41.5q105 -59 170 -59t132 6q6 -30 6 -55t-3 -49 q-117 -184 -263 -184z" />
<glyph unicode="&#x12a;" horiz-adv-x="852" d="M537 0h-465q138 597 195 1296q0 13 32.5 39t55.5 26h465q-139 -592 -196 -1295q0 -13 -32 -39.5t-55 -26.5zM822 1511q-355 0 -592 -15l30 219q4 25 25 56t33 32q388 0 592 15l-30 -219q-4 -26 -25 -57t-33 -31z" />
<glyph unicode="&#x12b;" horiz-adv-x="852" d="M97 0q87 368 133 928q0 13 33 39t55 26h419q-87 -374 -133 -927q0 -13 -32 -39.5t-55 -26.5h-420zM778 1217q-355 0 -592 -15l30 219q4 25 25 56t33 32q388 0 592 15l-30 -219q-4 -26 -25 -57t-33 -31z" />
<glyph unicode="&#x12c;" horiz-adv-x="852" d="M537 0h-465q138 597 195 1296q0 13 32.5 39t55.5 26h465q-139 -592 -196 -1295q0 -13 -32 -39.5t-55 -26.5zM946 1854q29 -40 40 -84q-41 -153 -165.5 -236.5t-272.5 -83.5q-150 0 -257 86q-114 90 -114 258q19 36 63 85q96 -148 321 -148q101 0 204.5 33t180.5 90z" />
<glyph unicode="&#x12d;" horiz-adv-x="852" d="M97 0q87 368 133 928q0 13 33 39t55 26h419q-87 -374 -133 -927q0 -13 -32 -39.5t-55 -26.5h-420zM876 1580q29 -40 40 -84q-83 -372 -419 -372q-156 0 -253 106t-97 290q19 36 63 85q92 -214 297 -214t369 189z" />
<glyph unicode="&#x12e;" horiz-adv-x="852" d="M537 0h-197q-24 -33 -44 -67q-47 -79 -47 -135.5t41.5 -88t117.5 -31.5t185 42q-7 -94 -24 -174q-114 -92 -303 -92q-280 0 -280 192q0 154 168 326q13 14 27 28h-109q138 597 195 1296q0 13 32.5 39t55.5 26h465q-139 -592 -196 -1295q0 -13 -32 -39.5t-55 -26.5z" />
<glyph unicode="&#x12f;" horiz-adv-x="852" d="M97 0q87 368 133 928q0 13 33 39t55 26h419q-87 -374 -133 -927q0 -13 -32 -39.5t-55 -26.5h-177q-24 -33 -44 -67q-47 -79 -47 -135.5t41.5 -88t117.5 -31.5t185 42q-7 -94 -24 -174q-114 -92 -303 -92q-280 0 -280 192q0 154 168 326q13 14 27 28h-84zM681 1128h-418 q19 77 25 151q0 14 32 40.5t55 26.5h420q-13 -47 -27 -152q0 -14 -31.5 -40t-55.5 -26z" />
<glyph unicode="&#x130;" horiz-adv-x="852" d="M537 0h-465q138 597 195 1296q0 13 32.5 39t55.5 26h465q-139 -592 -196 -1295q0 -13 -32 -39.5t-55 -26.5zM390 1741q77 88 205 88q93 0 147 -45t54 -118.5t-72.5 -130t-169 -56.5t-151 44.5t-54.5 108t41 109.5z" />
<glyph unicode="&#x131;" horiz-adv-x="852" d="M97 0q87 368 133 928q0 13 33 39t55 26h419q-87 -374 -133 -927q0 -13 -32 -39.5t-55 -26.5h-420z" />
<glyph unicode="&#x132;" horiz-adv-x="2047" d="M537 0h-465q138 597 195 1296q0 13 32.5 39t55.5 26h465q-139 -592 -196 -1295q0 -13 -32 -39.5t-55 -26.5zM1332 -20q24 175 29 403.5t13.5 465t41.5 446.5q0 14 32.5 40t54.5 26h466q-72 -305 -91 -491t-30 -294t-21 -180t-31 -140.5t-53 -111t-87 -78.5 q-96 -64 -324 -86zM926 351q3 15 34.5 40.5t52.5 25.5q43 -119 100.5 -202t147.5 -143q-3 -53 -18 -92q-179 0 -358 76q3 130 41 295z" />
<glyph unicode="&#x133;" horiz-adv-x="1704" d="M97 0q87 368 133 928q0 13 33 39t55 26h419q-87 -374 -133 -927q0 -13 -32 -39.5t-55 -26.5h-420zM681 1128h-418q19 77 25 151q0 14 32 40.5t55 26.5h420q-13 -47 -27 -152q0 -14 -31.5 -40t-55.5 -26zM1169 993h419q-36 -157 -89 -487t-73 -505q-25 -226 -153.5 -324 t-393.5 -98q53 180 116 623t87 725q0 13 32 39.5t55 26.5zM1541 1128h-418q19 77 25 151q0 14 32 40.5t55 26.5h420q-13 -47 -27 -152q0 -14 -31.5 -40t-55.5 -26z" />
<glyph unicode="&#x134;" horiz-adv-x="1195" d="M480 -20q24 175 29 403.5t13.5 465t41.5 446.5q0 14 32.5 40t54.5 26h466q-72 -305 -91 -491t-30 -294t-21 -180t-31 -140.5t-53 -111t-87 -78.5q-96 -64 -324 -86zM74 351q3 15 34.5 40.5t52.5 25.5q43 -119 100.5 -202t147.5 -143q-3 -53 -18 -92q-179 0 -358 76 q3 130 41 295zM441 1462q-33 47 -48 105q194 129 439 255h102q186 -109 393 -255q-22 -62 -60 -105q-241 30 -411 65q-223 -39 -415 -65z" />
<glyph unicode="&#x135;" horiz-adv-x="852" d="M317 993h419q-36 -157 -89 -487t-73 -505q-25 -226 -153.5 -324t-393.5 -98q53 180 116 623t87 725q0 13 32 39.5t55 26.5zM122 1239q178 204 369 355h102q92 -94 139.5 -153.5t143.5 -201.5q-24 -54 -80 -105q-176 82 -281 138q-146 -64 -335 -138q-42 45 -58 105z" />
<glyph unicode="&#x136;" horiz-adv-x="1535" d="M566 0h-453q134 540 196 1295q0 14 32.5 40t54.5 26h455q-142 -603 -196 -1294q0 -14 -32.5 -40.5t-56.5 -26.5zM1381 493l-14 -245q0 -54 20 -87t74 -41q-10 -63 -33 -103q-181 -42 -332 -42q-236 0 -236 168q0 64 22.5 188.5t22.5 171.5q0 125 -89 135q39 133 311 657 q9 18 37 42t51 24h366q-270 -384 -570 -644q43 3 82 3q153 0 220.5 -56.5t67.5 -170.5zM487 -222q0 67 81 112.5t181.5 45.5t155 -37.5t54.5 -93t-22.5 -104.5t-52.5 -83q-66 -71 -88 -79.5t-83 -8.5t-100 3q28 68 28 96.5t-24 44t-53 25t-53 30t-24 49.5z" />
<glyph unicode="&#x137;" horiz-adv-x="1535" d="M1338 367l-7 -148q0 -47 20.5 -68.5t69.5 -21.5q-10 -62 -33 -102q-142 -42 -297 -42t-199.5 33.5t-44.5 89t13.5 144.5t13.5 141q0 92 -104 111q9 49 34 78q96 29 142 87t46 110.5t-20 81t-48 28.5t-55 -9q9 60 34 90q118 57 229.5 57t176.5 -50t65 -127.5t-34.5 -130 t-91.5 -85.5q-112 -67 -257 -81q170 0 258.5 -49t88.5 -137zM638 68q0 -14 -32 -41t-56 -27h-412q44 188 101.5 628t79.5 690q0 13 32 39.5t55 26.5h421q-53 -220 -110 -634.5t-79 -681.5zM474 -222q0 67 81 112.5t181.5 45.5t155 -37.5t54.5 -93t-22.5 -104.5t-53.5 -83 q-65 -71 -87 -79.5t-83 -8.5t-100 3q28 68 28 96.5t-24 44t-53 25t-53 30t-24 49.5z" />
<glyph unicode="&#x138;" horiz-adv-x="1535" d="M1338 367l-7 -148q0 -47 20.5 -68.5t69.5 -21.5q-10 -62 -33 -102q-142 -42 -297 -42t-199.5 33.5t-44.5 89t13.5 144.5t13.5 141q0 92 -104 111q9 49 34 78q96 29 142 87t46 110.5t-20 81t-48 28.5t-55 -9q9 60 34 90q118 57 229.5 57t176.5 -50t65 -127.5t-34.5 -130 t-91.5 -85.5q-112 -67 -257 -81q170 0 258.5 -49t88.5 -137zM756 1019q-65 -338 -115 -953q0 -13 -32 -39.5t-55 -26.5h-420q88 373 134 925q0 12 32 36.5t67.5 30.5t174 16.5t214.5 10.5z" />
<glyph unicode="&#x139;" d="M599 0h-466q134 485 198 1296q0 13 33 39t56 26h464q-142 -605 -198 -1294q0 -13 -32 -40t-55 -27zM1134 501q15 29 57 52t77 23q-49 -428 -71 -503q-9 -21 -36 -47t-44 -26h-385q119 89 224 222.5t178 278.5zM369 1460q-19 39 -31 90q282 177 507 282 q36 -60 68.5 -149.5t37.5 -149.5q-229 -48 -582 -73z" />
<glyph unicode="&#x13a;" horiz-adv-x="852" d="M602 68q0 -14 -32 -41t-56 -27h-412q44 188 101.5 628t79.5 690q0 13 32 39.5t55 26.5h421q-53 -220 -110 -634.5t-79 -681.5zM299 1496q-19 39 -31 90q282 177 507 282q36 -60 68.5 -149.5t37.5 -149.5q-229 -48 -582 -73z" />
<glyph unicode="&#x13b;" d="M599 0h-466q134 485 198 1296q0 13 33 39t56 26h464q-142 -605 -198 -1294q0 -13 -32 -40t-55 -27zM1134 501q15 29 57 52t77 23q-49 -428 -71 -503q-9 -21 -36 -47t-44 -26h-385q119 89 224 222.5t178 278.5zM415 -222q0 67 81 112.5t181.5 45.5t155 -37.5t54.5 -93 t-22.5 -104.5t-52.5 -83q-66 -71 -88 -79.5t-83 -8.5t-100 3q28 68 28 96.5t-24 44t-53 25t-53 30t-24 49.5z" />
<glyph unicode="&#x13c;" horiz-adv-x="852" d="M602 68q0 -14 -32 -41t-56 -27h-412q44 188 101.5 628t79.5 690q0 13 32 39.5t55 26.5h421q-53 -220 -110 -634.5t-79 -681.5zM67 -222q0 67 81 112.5t181.5 45.5t155 -37.5t54.5 -93t-22.5 -104.5t-52.5 -83q-66 -71 -88.5 -79.5t-83 -8.5t-99.5 3q28 68 28 96.5t-24 44 t-53 25t-53 30t-24 49.5z" />
<glyph unicode="&#x13d;" d="M599 0h-466q134 485 198 1296q0 13 33 39t56 26h464q-142 -605 -198 -1294q0 -13 -32 -40t-55 -27zM1134 501q15 29 57 52t77 23q-49 -428 -71 -503q-9 -21 -36 -47t-44 -26h-385q119 89 224 222.5t178 278.5zM1072 1822q33 -47 48 -105q-194 -129 -439 -255h-102 q-186 109 -393 255q22 62 60 105q223 -27 411 -65q216 38 415 65z" />
<glyph unicode="&#x13e;" horiz-adv-x="927" d="M781 932q17 82 39.5 217t23.5 157t33 48.5t55 26.5h137q-11 -52 -28 -135.5t-24.5 -116.5t-22.5 -78.5t-29 -60t-41 -32.5q-38 -26 -143 -26zM602 68q0 -14 -32 -41t-56 -27h-412q44 188 101.5 628t79.5 690q0 13 32 39.5t55 26.5h421q-53 -220 -110 -634.5t-79 -681.5z " />
<glyph unicode="&#x13f;" d="M599 0h-466q134 485 198 1296q0 13 33 39t56 26h464q-142 -605 -198 -1294q0 -13 -32 -40t-55 -27zM1134 501q15 29 57 52t77 23q-49 -428 -71 -503q-9 -21 -36 -47t-44 -26h-385q119 89 224 222.5t178 278.5zM1000 971q77 88 205 88q93 0 147 -45t54 -118.5t-72.5 -130 t-169 -56.5t-151 44.5t-54.5 108t41 109.5z" />
<glyph unicode="&#x140;" horiz-adv-x="1226" d="M602 68q0 -14 -32 -41t-56 -27h-412q44 188 101.5 628t79.5 690q0 13 32 39.5t55 26.5h421q-53 -220 -110 -634.5t-79 -681.5zM816 617q77 88 205 88q93 0 147 -45t54 -118.5t-72.5 -130t-169 -56.5t-151 44.5t-54.5 108t41 109.5z" />
<glyph unicode="&#x141;" d="M599 0h-466q65 236 114 549q-118 -34 -202 -63v32q0 25 22.5 65.5t35.5 42.5q73 12 159 31q41 289 69 639q0 13 33 39t56 26h464q-66 -282 -114 -583q45 14 101 33q140 48 199 73v-41q0 -24 -21.5 -64t-34.5 -43q-147 -37 -261 -68q-42 -292 -67 -601q0 -13 -32 -40 t-55 -27zM1134 501q15 29 57 52t77 23q-49 -428 -71 -503q-9 -21 -36 -47t-44 -26h-385q119 89 224 222.5t178 278.5z" />
<glyph unicode="&#x142;" horiz-adv-x="852" d="M602 68q0 -14 -32 -41t-56 -27h-412q42 180 97 593q-114 -27 -203 -57v32q0 24 22.5 55t35.5 33q76 10 156 25q52 402 73 637q0 13 32 39.5t55 26.5h421q-52 -214 -107 -612q111 29 192 62v-41q0 -23 -21.5 -54t-34.5 -33q-72 -13 -149 -29q-49 -366 -69 -609z" />
<glyph unicode="&#x143;" horiz-adv-x="1535" d="M1263 66q0 -13 -32 -39.5t-55 -26.5h-258q-113 205 -301.5 467t-343.5 439q13 107 40 390q3 14 34.5 39.5t52.5 25.5h261q133 -234 284.5 -443t353.5 -456q-26 -240 -36 -396zM1246 637q-48 247 -87.5 388.5t-106.5 270.5q0 13 32.5 39t56.5 26h318q-67 -289 -125 -657 q0 -14 -32 -40.5t-56 -26.5zM327 711q26 -210 71 -351.5t125 -293.5q0 -13 -32 -39.5t-56 -26.5h-318q67 291 122 645q0 13 32.5 39.5t55.5 26.5zM648 1460q-19 39 -31 90q282 177 507 282q36 -60 68.5 -149.5t37.5 -149.5q-229 -48 -582 -73z" />
<glyph unicode="&#x144;" horiz-adv-x="1535" d="M515 0h-420q104 438 144 925q0 12 32 36.5t67.5 30.5t174 16.5t214.5 10.5q-81 -419 -125 -953q0 -13 -32 -39.5t-55 -26.5zM876 -10q-58 56 -58 144t44.5 336t44.5 305.5t-27.5 83t-71.5 25.5q9 60 34 90q37 18 116.5 33t147.5 15q133 0 199.5 -61t66.5 -193 q0 -74 -32 -260t-32 -228t3.5 -63t6 -33t13.5 -27.5t14 -19t20 -20t20 -19.5q0 -14 -29 -46.5t-53 -42.5q-128 -19 -427 -19zM587 1145q-34 43 -49 105q235 208 461 355q40 -52 91 -167t63 -177q-225 -77 -566 -116z" />
<glyph unicode="&#x145;" horiz-adv-x="1535" d="M1263 66q0 -13 -32 -39.5t-55 -26.5h-258q-113 205 -301.5 467t-343.5 439q13 107 40 390q3 14 34.5 39.5t52.5 25.5h261q133 -234 284.5 -443t353.5 -456q-26 -240 -36 -396zM1246 637q-48 247 -87.5 388.5t-106.5 270.5q0 13 32.5 39t56.5 26h318q-67 -289 -125 -657 q0 -14 -32 -40.5t-56 -26.5zM327 711q26 -210 71 -351.5t125 -293.5q0 -13 -32 -39.5t-56 -26.5h-318q67 291 122 645q0 13 32.5 39.5t55.5 26.5zM455 -222q0 67 81 112.5t181.5 45.5t155 -37.5t54.5 -93t-22.5 -104.5t-52.5 -83q-66 -71 -88 -79.5t-83 -8.5t-100 3 q28 68 28 96.5t-24 44t-53 25t-53 30t-24 49.5z" />
<glyph unicode="&#x146;" horiz-adv-x="1535" d="M515 0h-420q104 438 144 925q0 12 32 36.5t67.5 30.5t174 16.5t214.5 10.5q-81 -419 -125 -953q0 -13 -32 -39.5t-55 -26.5zM876 -10q-58 56 -58 144t44.5 336t44.5 305.5t-27.5 83t-71.5 25.5q9 60 34 90q37 18 116.5 33t147.5 15q133 0 199.5 -61t66.5 -193 q0 -74 -32 -260t-32 -228t3.5 -63t6 -33t13.5 -27.5t14 -19t20 -20t20 -19.5q0 -14 -29 -46.5t-53 -42.5q-128 -19 -427 -19zM439 -222q0 67 81 112.5t181.5 45.5t155 -37.5t54.5 -93t-22.5 -104.5t-52.5 -83q-66 -71 -88 -79.5t-83 -8.5t-100 3q28 68 28 96.5t-24 44 t-53 25t-53 30t-24 49.5z" />
<glyph unicode="&#x147;" horiz-adv-x="1535" d="M1263 66q0 -13 -32 -39.5t-55 -26.5h-258q-113 205 -301.5 467t-343.5 439q13 107 40 390q3 14 34.5 39.5t52.5 25.5h261q133 -234 284.5 -443t353.5 -456q-26 -240 -36 -396zM1246 637q-48 247 -87.5 388.5t-106.5 270.5q0 13 32.5 39t56.5 26h318q-67 -289 -125 -657 q0 -14 -32 -40.5t-56 -26.5zM327 711q26 -210 71 -351.5t125 -293.5q0 -13 -32 -39.5t-56 -26.5h-318q67 291 122 645q0 13 32.5 39.5t55.5 26.5zM1335 1822q33 -47 48 -105q-194 -129 -439 -255h-102q-186 109 -393 255q22 62 60 105q223 -27 411 -65q216 38 415 65z" />
<glyph unicode="&#x148;" horiz-adv-x="1535" d="M515 0h-420q104 438 144 925q0 12 32 36.5t67.5 30.5t174 16.5t214.5 10.5q-81 -419 -125 -953q0 -13 -32 -39.5t-55 -26.5zM876 -10q-58 56 -58 144t44.5 336t44.5 305.5t-27.5 83t-71.5 25.5q9 60 34 90q37 18 116.5 33t147.5 15q133 0 199.5 -61t66.5 -193 q0 -74 -32 -260t-32 -228t3.5 -63t6 -33t13.5 -27.5t14 -19t20 -20t20 -19.5q0 -14 -29 -46.5t-53 -42.5q-128 -19 -427 -19zM1251 1500q-178 -204 -369 -355h-102q-92 94 -139.5 153.5t-143.5 201.5q24 54 80 105q158 -74 280 -138q149 65 336 138q42 -45 58 -105z" />
<glyph unicode="&#x14a;" horiz-adv-x="1535" d="M1263 66v-1v-1v-1q-19 -279 -141 -397q-114 -111 -337 -133q95 200 119 485v6q-110 196 -288 443q-188 262 -343 439q13 107 40 390q3 14 34.5 39.5t52.5 25.5h261q133 -234 284.5 -443t353.5 -456q-26 -240 -36 -396zM1246 637q-48 247 -87.5 388.5t-106.5 270.5 q0 13 32.5 39t56.5 26h318q-67 -289 -125 -657q0 -14 -32 -40.5t-56 -26.5zM327 711q26 -210 71 -351.5t125 -293.5q0 -13 -32 -39.5t-56 -26.5h-318q67 291 122 645q0 13 32.5 39.5t55.5 26.5z" />
<glyph unicode="&#x14b;" horiz-adv-x="1535" d="M515 0h-420q104 438 144 925q0 12 32 36.5t67.5 30.5t174 16.5t214.5 10.5q-81 -419 -125 -953q0 -13 -32 -39.5t-55 -26.5zM1264 1q-25 -226 -153.5 -324t-393.5 -98q57 192 123.5 597.5t66.5 614.5q0 46 -28.5 69.5t-70.5 23.5q9 60 34 90q37 18 116.5 33t147.5 15 q133 0 199.5 -61t66.5 -193q0 -101 -51.5 -416.5t-56.5 -350.5z" />
<glyph unicode="&#x14c;" horiz-adv-x="1535" d="M689 -20q146 122 217.5 356t71.5 492.5t-53 467.5q0 14 32.5 40.5t55.5 26.5q145 -28 247 -121q194 -177 194 -491q0 -239 -120 -431q-133 -215 -366 -296q-128 -44 -279 -44zM888 1387q-147 -123 -219 -356t-72 -493t55 -466q0 -14 -32.5 -41t-56.5 -27 q-220 44 -333 220q-108 169 -108 391q0 239 120 433q132 213 366 294q128 45 280 45zM1153 1511q-355 0 -592 -15l30 219q4 25 25 56t33 32q388 0 592 15l-30 -219q-4 -26 -25 -57t-33 -31z" />
<glyph unicode="&#x14d;" horiz-adv-x="1535" d="M835 1027q-240 -230 -240 -621q0 -166 44 -334q-1 -15 -32.5 -41t-53.5 -26q-168 23 -291 139q-129 122 -129 304.5t91.5 312t250.5 198t360 68.5zM700 -9q240 230 240 621q0 166 -44 334q1 15 32.5 41t53.5 26q168 -23 290 -139q130 -122 130 -304.5t-91.5 -312 t-250.5 -198t-360 -68.5zM1107 1217q-355 0 -592 -15l30 219q4 25 25 56t33 32q388 0 592 15l-30 -219q-4 -26 -25 -57t-33 -31z" />
<glyph unicode="&#x14e;" horiz-adv-x="1535" d="M689 -20q146 122 217.5 356t71.5 492.5t-53 467.5q0 14 32.5 40.5t55.5 26.5q145 -28 247 -121q194 -177 194 -491q0 -239 -120 -431q-133 -215 -366 -296q-128 -44 -279 -44zM888 1387q-147 -123 -219 -356t-72 -493t55 -466q0 -14 -32.5 -41t-56.5 -27 q-220 44 -333 220q-108 169 -108 391q0 239 120 433q132 213 366 294q128 45 280 45zM1277 1854q29 -40 40 -84q-41 -153 -165.5 -236.5t-272.5 -83.5q-150 0 -257 86q-114 90 -114 258q19 36 63 85q96 -148 321 -148q101 0 204.5 33t180.5 90z" />
<glyph unicode="&#x14f;" horiz-adv-x="1535" d="M835 1027q-240 -230 -240 -621q0 -166 44 -334q-1 -15 -32.5 -41t-53.5 -26q-168 23 -291 139q-129 122 -129 304.5t91.5 312t250.5 198t360 68.5zM700 -9q240 230 240 621q0 166 -44 334q1 15 32.5 41t53.5 26q168 -23 290 -139q130 -122 130 -304.5t-91.5 -312 t-250.5 -198t-360 -68.5zM1206 1580q29 -40 40 -84q-83 -372 -419 -372q-156 0 -253 106t-97 290q19 36 63 85q92 -214 297 -214t369 189z" />
<glyph unicode="&#x150;" horiz-adv-x="1535" d="M689 -20q146 122 217.5 356t71.5 492.5t-53 467.5q0 14 32.5 40.5t55.5 26.5q145 -28 247 -121q194 -177 194 -491q0 -239 -120 -431q-133 -215 -366 -296q-128 -44 -279 -44zM888 1387q-147 -123 -219 -356t-72 -493t55 -466q0 -14 -32.5 -41t-56.5 -27 q-220 44 -333 220q-108 169 -108 391q0 239 120 433q132 213 366 294q128 45 280 45zM536 1418q-58 35 -94 83q76 145 122.5 222t114.5 166q87 -65 129.5 -107t122.5 -142q-165 -116 -395 -222zM1080 1418q-58 35 -94 83q76 145 122.5 222t114.5 166q87 -65 129.5 -107 t122.5 -142q-165 -116 -395 -222z" />
<glyph unicode="&#x151;" horiz-adv-x="1535" d="M835 1027q-240 -230 -240 -621q0 -166 44 -334q-1 -15 -32.5 -41t-53.5 -26q-168 23 -291 139q-129 122 -129 304.5t91.5 312t250.5 198t360 68.5zM700 -9q240 230 240 621q0 166 -44 334q1 15 32.5 41t53.5 26q168 -23 290 -139q130 -122 130 -304.5t-91.5 -312 t-250.5 -198t-360 -68.5zM448 1144q-58 35 -94 83q52 154 94.5 243.5t110.5 178.5q145 -106 295 -277q-169 -119 -406 -228zM992 1144q-58 35 -94 83q52 154 94.5 243.5t110.5 178.5q145 -106 295 -277q-169 -119 -406 -228z" />
<glyph unicode="&#x152;" horiz-adv-x="2026" d="M1380 692q238 -26 348 -59q0 -55 -23 -81q-164 -10 -352 -52q-27 -210 -45 -434q0 -13 -31.5 -39t-55.5 -27l-462 -17q-35 -3 -70 -3q146 122 217.5 356t71.5 492.5t-53 467.5q0 14 32.5 40.5t55.5 26.5l493 -2q-76 -330 -126 -669zM888 1387q-147 -123 -219 -356 t-72 -493t55 -466q0 -14 -32.5 -41t-56.5 -27q-220 44 -333 220q-108 169 -108 391q0 239 120 433q132 213 366 294q128 45 280 45zM1810 755q-24 151 -91 301t-135 225q5 48 29 80h363q-7 -97 -30 -260.5t-49 -278.5q-4 -17 -34 -42t-53 -25zM1764 411q11 14 50 40t61 26 q-34 -297 -64 -405q-9 -20 -36 -46t-44 -26h-367q246 165 400 411z" />
<glyph unicode="&#x153;" horiz-adv-x="2158" d="M1623 1010q-124 -84 -196.5 -221t-72.5 -293t120 -254t350 -98q63 0 135 11q-47 -74 -181 -123.5t-307 -49.5q-234 0 -372 106q-162 -97 -399 -97q240 230 240 621q0 166 -44 334q1 15 32.5 41t53.5 26q117 -17 202 -81q148 87 345 87q52 0 94 -9zM835 1027 q-240 -230 -240 -621q0 -166 44 -334q-1 -15 -32.5 -41t-53.5 -26q-168 23 -291 139q-129 122 -129 304.5t91.5 312t250.5 198t360 68.5zM1785 994q143 -26 220.5 -118.5t77.5 -207.5q0 -141 -123.5 -220t-318.5 -79q-61 0 -134 20q97 62 143 165t46 200t-19 170 q0 13 41.5 41t66.5 29z" />
<glyph unicode="&#x154;" horiz-adv-x="1535" d="M645 66q0 -13 -32 -39.5t-56 -26.5h-454q137 552 195 1285q0 12 32 37.5t55 26.5q300 25 458 25q-144 -622 -198 -1308zM1371 450l-14 -201q0 -55 20 -88t74 -41q-10 -63 -33 -103q-179 -42 -304.5 -42t-194 34.5t-68.5 107.5t22.5 199.5t22.5 180t-24 89.5t-65 40 q5 45 34 80q84 44 131 137t47 201q0 162 -97 263q0 15 32 42t55 27q179 0 310 -74q66 -38 105 -104t39 -152q0 -141 -129 -240t-345 -114l90 -8q132 -13 212 -69.5t80 -164.5zM618 1460q-19 39 -31 90q282 177 507 282q36 -60 68.5 -149.5t37.5 -149.5q-229 -48 -582 -73z " />
<glyph unicode="&#x155;" horiz-adv-x="1195" d="M1087 1019q114 0 114 -143q0 -89 -31 -177.5t-78 -135.5q-66 46 -162.5 76.5t-184.5 33.5q8 55 32 117q161 229 310 229zM488 0h-419q102 436 144 925q0 11 32.5 36t67 31t179 16.5t221.5 10.5q-99 -495 -138 -953q0 -13 -32 -39.5t-55 -26.5zM538 1145q-34 43 -49 105 q235 208 461 355q40 -52 91 -167t63 -177q-225 -77 -566 -116z" />
<glyph unicode="&#x156;" horiz-adv-x="1535" d="M645 66q0 -13 -32 -39.5t-56 -26.5h-454q137 552 195 1285q0 12 32 37.5t55 26.5q300 25 458 25q-144 -622 -198 -1308zM1371 450l-14 -201q0 -55 20 -88t74 -41q-10 -63 -33 -103q-179 -42 -304.5 -42t-194 34.5t-68.5 107.5t22.5 199.5t22.5 180t-24 89.5t-65 40 q5 45 34 80q84 44 131 137t47 201q0 162 -97 263q0 15 32 42t55 27q179 0 310 -74q66 -38 105 -104t39 -152q0 -141 -129 -240t-345 -114l90 -8q132 -13 212 -69.5t80 -164.5zM477 -222q0 67 81 112.5t181.5 45.5t155 -37.5t54.5 -93t-22.5 -104.5t-52.5 -83 q-66 -71 -88 -79.5t-83 -8.5t-100 3q28 68 28 96.5t-24 44t-53 25t-53 30t-24 49.5z" />
<glyph unicode="&#x157;" horiz-adv-x="1195" d="M1087 1019q114 0 114 -143q0 -89 -31 -177.5t-78 -135.5q-66 46 -162.5 76.5t-184.5 33.5q8 55 32 117q161 229 310 229zM488 0h-419q102 436 144 925q0 11 32.5 36t67 31t179 16.5t221.5 10.5q-99 -495 -138 -953q0 -13 -32 -39.5t-55 -26.5zM46 -222q0 67 81 112.5 t181.5 45.5t155 -37.5t54.5 -93t-22.5 -104.5t-53.5 -83q-65 -71 -87.5 -79.5t-83 -8.5t-99.5 3q28 68 28 96.5t-24 44t-53 25t-53 30t-24 49.5z" />
<glyph unicode="&#x158;" horiz-adv-x="1535" d="M645 66q0 -13 -32 -39.5t-56 -26.5h-454q137 552 195 1285q0 12 32 37.5t55 26.5q300 25 458 25q-144 -622 -198 -1308zM1371 450l-14 -201q0 -55 20 -88t74 -41q-10 -63 -33 -103q-179 -42 -304.5 -42t-194 34.5t-68.5 107.5t22.5 199.5t22.5 180t-24 89.5t-65 40 q5 45 34 80q84 44 131 137t47 201q0 162 -97 263q0 15 32 42t55 27q179 0 310 -74q66 -38 105 -104t39 -152q0 -141 -129 -240t-345 -114l90 -8q132 -13 212 -69.5t80 -164.5zM1305 1822q33 -47 48 -105q-194 -129 -439 -255h-102q-186 109 -393 255q22 62 60 105 q223 -27 411 -65q216 38 415 65z" />
<glyph unicode="&#x159;" horiz-adv-x="1195" d="M1087 1019q114 0 114 -143q0 -89 -31 -177.5t-78 -135.5q-66 46 -162.5 76.5t-184.5 33.5q8 55 32 117q161 229 310 229zM488 0h-419q102 436 144 925q0 11 32.5 36t67 31t179 16.5t221.5 10.5q-99 -495 -138 -953q0 -13 -32 -39.5t-55 -26.5zM972 1500 q-178 -204 -369 -355h-102q-92 94 -139.5 153.5t-143.5 201.5q24 54 80 105q158 -74 280 -138q149 65 336 138q42 -45 58 -105z" />
<glyph unicode="&#x15a;" d="M780 1399q-79 -67 -79 -162.5t52.5 -191t122.5 -162.5t108.5 -106.5t87 -95t76.5 -99.5q69 -107 69 -187.5t-33.5 -149.5t-95 -125.5t-157 -93.5t-210.5 -42q32 46 32 96.5t-21 103t-64 112.5q-69 97 -154.5 190t-119 133t-75.5 101q-82 118 -82 237t73 221t197.5 161 t272.5 60zM1113 795q0 97 -35 200q-69 201 -230 324q2 18 34 43t53 25q73 0 170.5 -29t154.5 -56q5 -30 5 -104.5t-14 -186t-34 -176.5q-6 -15 -42.5 -27.5t-61.5 -12.5zM634 71q-12 -68 -37 -91q-105 0 -248 27t-208 69q-1 22 -1 63q0 195 46 370q4 16 34 40.5t54 24.5 q23 -110 82.5 -221t135 -187.5t142.5 -94.5zM562 1460q-19 39 -31 90q282 177 507 282q36 -60 68.5 -149.5t37.5 -149.5q-229 -48 -582 -73z" />
<glyph unicode="&#x15b;" horiz-adv-x="1195" d="M662 1028q-57 -54 -57 -114q0 -140 213 -290q96 -68 150 -116q121 -108 121 -234.5t-126.5 -204t-354.5 -77.5q26 58 26 105t-26.5 91.5t-68.5 81.5t-93 74.5t-102 76.5t-93 80q-95 93 -95 201q0 119 88 194q151 127 418 132zM817 1025q141 0 242 -55.5t101 -135.5 q0 -124 -232 -152q2 7 2 22q0 76 -48 140.5t-134 103.5q0 16 22 44t47 33zM433 -4q-50 -4 -74 -4q-145 0 -241 47.5t-96 123.5q0 153 231 193q-8 -43 -6.5 -75.5t22 -64t57.5 -56.5q66 -44 164 -81q0 -15 -18.5 -44.5t-38.5 -38.5zM472 1145q-34 43 -49 105q235 208 461 355 q40 -52 91 -167t63 -177q-225 -77 -566 -116z" />
<glyph unicode="&#x15c;" d="M780 1399q-79 -67 -79 -162.5t52.5 -191t122.5 -162.5t108.5 -106.5t87 -95t76.5 -99.5q69 -107 69 -187.5t-33.5 -149.5t-95 -125.5t-157 -93.5t-210.5 -42q32 46 32 96.5t-21 103t-64 112.5q-69 97 -154.5 190t-119 133t-75.5 101q-82 118 -82 237t73 221t197.5 161 t272.5 60zM1113 795q0 97 -35 200q-69 201 -230 324q2 18 34 43t53 25q73 0 170.5 -29t154.5 -56q5 -30 5 -104.5t-14 -186t-34 -176.5q-6 -15 -42.5 -27.5t-61.5 -12.5zM634 71q-12 -68 -37 -91q-105 0 -248 27t-208 69q-1 22 -1 63q0 195 46 370q4 16 34 40.5t54 24.5 q23 -110 82.5 -221t135 -187.5t142.5 -94.5zM418 1462q-33 47 -48 105q194 129 439 255h102q186 -109 393 -255q-22 -62 -60 -105q-241 30 -411 65q-223 -39 -415 -65z" />
<glyph unicode="&#x15d;" horiz-adv-x="1195" d="M662 1028q-57 -54 -57 -114q0 -140 213 -290q96 -68 150 -116q121 -108 121 -234.5t-126.5 -204t-354.5 -77.5q26 58 26 105t-26.5 91.5t-68.5 81.5t-93 74.5t-102 76.5t-93 80q-95 93 -95 201q0 119 88 194q151 127 418 132zM817 1025q141 0 242 -55.5t101 -135.5 q0 -124 -232 -152q2 7 2 22q0 76 -48 140.5t-134 103.5q0 16 22 44t47 33zM433 -4q-50 -4 -74 -4q-145 0 -241 47.5t-96 123.5q0 153 231 193q-8 -43 -6.5 -75.5t22 -64t57.5 -56.5q66 -44 164 -81q0 -15 -18.5 -44.5t-38.5 -38.5zM344 1239q178 204 369 355h102 q92 -94 139.5 -153.5t143.5 -201.5q-24 -54 -80 -105q-176 82 -281 138q-146 -64 -335 -138q-42 45 -58 105z" />
<glyph unicode="&#x15e;" d="M345 -299q95 -46 195 -46t100 70t-121 70q-11 0 -56 -3q-23 29 -33 76q62 30 115.5 41t145.5 11t159.5 -45.5t67.5 -139t-68 -148t-218 -54.5t-284 67q-4 24 -4 56.5t1 44.5zM780 1399q-79 -67 -79 -162.5t52.5 -191t122.5 -162.5t108.5 -106.5t87 -95t76.5 -99.5 q69 -107 69 -187.5t-33.5 -149.5t-95 -125.5t-157 -93.5t-210.5 -42q32 46 32 96.5t-21 103t-64 112.5q-69 97 -154.5 190t-119 133t-75.5 101q-82 118 -82 237t73 221t197.5 161t272.5 60zM1113 795q0 97 -35 200q-69 201 -230 324q2 18 34 43t53 25q73 0 170.5 -29 t154.5 -56q5 -30 5 -104.5t-14 -186t-34 -176.5q-6 -15 -42.5 -27.5t-61.5 -12.5zM634 71q-12 -68 -37 -91q-105 0 -248 27t-208 69q-1 22 -1 63q0 195 46 370q4 16 34 40.5t54 24.5q23 -110 82.5 -221t135 -187.5t142.5 -94.5z" />
<glyph unicode="&#x15f;" horiz-adv-x="1195" d="M234 -299q95 -46 195 -46t100 70t-121 70q-11 0 -56 -3q-23 29 -33 76q107 52 230 52t190.5 -45.5t67.5 -139t-68 -148t-218 -54.5t-284 67q-4 24 -4 56.5t1 44.5zM662 1028q-57 -54 -57 -114q0 -140 213 -290q96 -68 150 -116q121 -108 121 -234.5t-126.5 -204 t-354.5 -77.5q26 58 26 105t-26.5 91.5t-68.5 81.5t-93 74.5t-102 76.5t-93 80q-95 93 -95 201q0 119 88 194q151 127 418 132zM817 1025q141 0 242 -55.5t101 -135.5q0 -124 -232 -152q2 7 2 22q0 76 -48 140.5t-134 103.5q0 16 22 44t47 33zM433 -4q-50 -4 -74 -4 q-145 0 -241 47.5t-96 123.5q0 153 231 193q-8 -43 -6.5 -75.5t22 -64t57.5 -56.5q66 -44 164 -81q0 -15 -18.5 -44.5t-38.5 -38.5z" />
<glyph unicode="&#x160;" d="M780 1399q-79 -67 -79 -162.5t52.5 -191t122.5 -162.5t108.5 -106.5t87 -95t76.5 -99.5q69 -107 69 -187.5t-33.5 -149.5t-95 -125.5t-157 -93.5t-210.5 -42q32 46 32 96.5t-21 103t-64 112.5q-69 97 -154.5 190t-119 133t-75.5 101q-82 118 -82 237t73 221t197.5 161 t272.5 60zM1113 795q0 97 -35 200q-69 201 -230 324q2 18 34 43t53 25q73 0 170.5 -29t154.5 -56q5 -30 5 -104.5t-14 -186t-34 -176.5q-6 -15 -42.5 -27.5t-61.5 -12.5zM634 71q-12 -68 -37 -91q-105 0 -248 27t-208 69q-1 22 -1 63q0 195 46 370q4 16 34 40.5t54 24.5 q23 -110 82.5 -221t135 -187.5t142.5 -94.5zM1249 1822q33 -47 48 -105q-194 -129 -439 -255h-102q-186 109 -393 255q22 62 60 105q223 -27 411 -65q216 38 415 65z" />
<glyph unicode="&#x161;" horiz-adv-x="1195" d="M662 1028q-57 -54 -57 -114q0 -140 213 -290q96 -68 150 -116q121 -108 121 -234.5t-126.5 -204t-354.5 -77.5q26 58 26 105t-26.5 91.5t-68.5 81.5t-93 74.5t-102 76.5t-93 80q-95 93 -95 201q0 119 88 194q151 127 418 132zM817 1025q141 0 242 -55.5t101 -135.5 q0 -124 -232 -152q2 7 2 22q0 76 -48 140.5t-134 103.5q0 16 22 44t47 33zM433 -4q-50 -4 -74 -4q-145 0 -241 47.5t-96 123.5q0 153 231 193q-8 -43 -6.5 -75.5t22 -64t57.5 -56.5q66 -44 164 -81q0 -15 -18.5 -44.5t-38.5 -38.5zM1136 1500q-178 -204 -369 -355h-102 q-92 94 -139.5 153.5t-143.5 201.5q24 54 80 105q158 -74 280 -138q149 65 336 138q42 -45 58 -105z" />
<glyph unicode="&#x162;" horiz-adv-x="1535" d="M866 0h-466q147 531 209 1296q0 13 32.5 39t54.5 26h446q-129 -543 -188 -1295q0 -13 -32 -39.5t-56 -26.5zM1334 735q0 137 -43.5 304t-93.5 242q6 46 30 80h311q-32 -301 -85 -560q-4 -15 -48.5 -40.5t-70.5 -25.5zM116 736q8 117 38 307.5t45 246.5q7 20 34.5 45.5 t45.5 25.5h304q-102 -122 -156.5 -225t-105 -199.5t-77.5 -146.5q-6 -11 -55.5 -32.5t-72.5 -21.5zM404 -222q0 67 81 112.5t181.5 45.5t155 -37.5t54.5 -93t-22.5 -104.5t-53.5 -83q-65 -71 -87 -79.5t-83 -8.5t-100 3q28 68 28 96.5t-24 44t-53 25t-53 30t-24 49.5z" />
<glyph unicode="&#x163;" horiz-adv-x="1025" d="M904 61q-205 -66 -409 -66q-393 0 -393 313q0 68 29 271.5t29 281t-7 118.5q137 61 241 138t202 189q50 15 130 15q-67 -236 -106.5 -485t-39.5 -367.5t17 -171t55 -81.5q67 -51 212 -51q35 0 74 3q-9 -66 -34 -107zM729 756q9 139 45 258q98 -41 219 -58q8 -15 15 -49.5 t7 -54.5q-139 -38 -286 -96zM214 -222q0 67 81 112.5t181.5 45.5t155 -37.5t54.5 -93t-22.5 -104.5t-53.5 -83q-65 -71 -87 -79.5t-83 -8.5t-100 3q28 68 28 96.5t-24 44t-53 25t-53 30t-24 49.5z" />
<glyph unicode="&#x164;" horiz-adv-x="1535" d="M866 0h-466q147 531 209 1296q0 13 32.5 39t54.5 26h446q-129 -543 -188 -1295q0 -13 -32 -39.5t-56 -26.5zM1334 735q0 137 -43.5 304t-93.5 242q6 46 30 80h311q-32 -301 -85 -560q-4 -15 -48.5 -40.5t-70.5 -25.5zM116 736q8 117 38 307.5t45 246.5q7 20 34.5 45.5 t45.5 25.5h304q-102 -122 -156.5 -225t-105 -199.5t-77.5 -146.5q-6 -11 -55.5 -32.5t-72.5 -21.5zM1322 1822q33 -47 48 -105q-194 -129 -439 -255h-102q-186 109 -393 255q22 62 60 105q223 -27 411 -65q216 38 415 65z" />
<glyph unicode="&#x165;" horiz-adv-x="1025" d="M789 1113q17 82 39.5 217t23.5 157t33 48.5t55 26.5h137q-11 -52 -28 -135.5t-24.5 -116.5t-22.5 -78.5t-29 -60t-41 -32.5q-38 -26 -143 -26zM904 61q-205 -66 -409 -66q-393 0 -393 313q0 68 29 271.5t29 281t-7 118.5q137 61 241 138t202 189q50 15 130 15 q-67 -236 -106.5 -485t-39.5 -367.5t17 -171t55 -81.5q67 -51 212 -51q35 0 74 3q-9 -66 -34 -107zM729 756q9 139 45 258q98 -41 219 -58q8 -15 15 -49.5t7 -54.5q-139 -38 -286 -96z" />
<glyph unicode="&#x166;" horiz-adv-x="1535" d="M866 0h-466q62 226 109 494q-149 -17 -243 -33v32q0 25 22.5 56.5t35.5 31.5q91 0 201 6q53 325 84 709q0 13 32.5 39t54.5 26h446q-82 -346 -136 -777q151 12 240 35v-41q0 -24 -21.5 -55.5t-34.5 -31.5q-106 0 -196 -4q-23 -202 -40 -421q0 -13 -32 -39.5t-56 -26.5z M116 736q8 117 38 307.5t45 246.5q7 20 34.5 45.5t45.5 25.5h304q-102 -122 -156.5 -225t-105 -199.5t-77.5 -146.5q-6 -11 -55.5 -32.5t-72.5 -21.5zM1334 735q0 137 -43.5 304t-93.5 242q6 46 30 80h311q-32 -301 -85 -560q-4 -15 -48.5 -40.5t-70.5 -25.5z" />
<glyph unicode="&#x167;" horiz-adv-x="1025" d="M904 61q-205 -66 -409 -66q-393 0 -393 313q0 39 9 123q-104 -13 -175 -25v32q0 25 22.5 56.5t35.5 31.5q61 0 130 3q3 24 7 50q29 204 29 281.5t-7 118.5q137 61 241 138t202 189q50 15 130 15q-67 -236 -107 -485q-27 -173 -36 -283q120 12 195 31v-41 q0 -24 -21.5 -55.5t-34.5 -31.5q-75 0 -142 -2q1 -108 17 -157q17 -52 55 -81q67 -51 212 -51q35 0 74 3q-9 -66 -34 -107zM729 756q9 139 45 258q98 -41 219 -58q8 -15 15 -49.5t7 -54.5q-139 -38 -286 -96z" />
<glyph unicode="&#x168;" horiz-adv-x="1535" d="M1268 335q-29 -148 -140 -247q-122 -108 -338 -108q-385 0 -508 197q-69 109 -69 282q0 114 46 398t46 438q0 14 32 40t55 26h477q-156 -726 -156 -978q0 -241 237 -241q92 0 179 53.5t139 139.5zM1200 390q0 300 -32.5 511.5t-119.5 393.5q0 14 32 40t55 26h338 q-117 -530 -186 -904q-3 -15 -33.5 -41t-53.5 -26zM619 1503q-6 27 -6 54t4 50q60 94 131 121q60 23 127 23t210.5 -35.5t205 -35.5t128.5 6q6 -30 6 -55t-3 -49q-57 -89 -120 -116.5t-135.5 -27.5t-216.5 35.5t-204 35.5t-127 -6z" />
<glyph unicode="&#x169;" horiz-adv-x="1532" d="M156 258q0 103 33.5 284t33.5 254t-47 103q0 16 29 58.5t50 42.5h391q19 -10 37 -36.5t18 -67.5t-43.5 -265.5t-43.5 -350.5q0 -64 32.5 -97.5t83.5 -33.5q-2 -13 -2 -33q0 -44 -12 -57q-49 -31 -129.5 -49.5t-154.5 -18.5q-276 0 -276 267zM911 2q-79 56 -79 137 t42.5 363t54.5 432q0 13 32.5 39.5t55.5 26.5h406q-54 -232 -87 -436t-33 -278t18.5 -109t58.5 -67q0 -14 -29 -46.5t-53 -42.5q-129 -19 -387 -19zM990 1154q-79 0 -180.5 60.5t-167 60.5t-132.5 -6q-6 27 -6 54t4 50q116 184 262 184q57 0 99 -20.5t79 -41.5 q105 -59 170 -59t132 6q6 -30 6 -55t-3 -49q-117 -184 -263 -184z" />
<glyph unicode="&#x16a;" horiz-adv-x="1535" d="M1268 335q-29 -148 -140 -247q-122 -108 -338 -108q-385 0 -508 197q-69 109 -69 282q0 114 46 398t46 438q0 14 32 40t55 26h477q-156 -726 -156 -978q0 -241 237 -241q92 0 179 53.5t139 139.5zM1200 390q0 300 -32.5 511.5t-119.5 393.5q0 14 32 40t55 26h338 q-117 -530 -186 -904q-3 -15 -33.5 -41t-53.5 -26zM1274 1511q-355 0 -592 -15l30 219q4 25 25 56t33 32q388 0 592 15l-30 -219q-4 -26 -25 -57t-33 -31z" />
<glyph unicode="&#x16b;" horiz-adv-x="1532" d="M156 258q0 103 33.5 284t33.5 254t-47 103q0 16 29 58.5t50 42.5h391q19 -10 37 -36.5t18 -67.5t-43.5 -265.5t-43.5 -350.5q0 -64 32.5 -97.5t83.5 -33.5q-2 -13 -2 -33q0 -44 -12 -57q-49 -31 -129.5 -49.5t-154.5 -18.5q-276 0 -276 267zM911 2q-79 56 -79 137 t42.5 363t54.5 432q0 13 32.5 39.5t55.5 26.5h406q-54 -232 -87 -436t-33 -278t18.5 -109t58.5 -67q0 -14 -29 -46.5t-53 -42.5q-129 -19 -387 -19zM1124 1217q-355 0 -592 -15l30 219q4 25 25 56t33 32q388 0 592 15l-30 -219q-4 -26 -25 -57t-33 -31z" />
<glyph unicode="&#x16c;" horiz-adv-x="1535" d="M1268 335q-29 -148 -140 -247q-122 -108 -338 -108q-385 0 -508 197q-69 109 -69 282q0 114 46 398t46 438q0 14 32 40t55 26h477q-156 -726 -156 -978q0 -241 237 -241q92 0 179 53.5t139 139.5zM1200 390q0 300 -32.5 511.5t-119.5 393.5q0 14 32 40t55 26h338 q-117 -530 -186 -904q-3 -15 -33.5 -41t-53.5 -26zM1398 1854q29 -40 40 -84q-41 -153 -165.5 -236.5t-272.5 -83.5q-150 0 -257 86q-114 90 -114 258q19 36 63 85q96 -148 321 -148q101 0 204.5 33t180.5 90z" />
<glyph unicode="&#x16d;" horiz-adv-x="1532" d="M156 258q0 103 33.5 284t33.5 254t-47 103q0 16 29 58.5t50 42.5h391q19 -10 37 -36.5t18 -67.5t-43.5 -265.5t-43.5 -350.5q0 -64 32.5 -97.5t83.5 -33.5q-2 -13 -2 -33q0 -44 -12 -57q-49 -31 -129.5 -49.5t-154.5 -18.5q-276 0 -276 267zM911 2q-79 56 -79 137 t42.5 363t54.5 432q0 13 32.5 39.5t55.5 26.5h406q-54 -232 -87 -436t-33 -278t18.5 -109t58.5 -67q0 -14 -29 -46.5t-53 -42.5q-129 -19 -387 -19zM1223 1580q29 -40 40 -84q-83 -372 -419 -372q-156 0 -253 106t-97 290q19 36 63 85q92 -214 297 -214t369 189z" />
<glyph unicode="&#x16e;" horiz-adv-x="1535" d="M1268 335q-29 -148 -140 -247q-122 -108 -338 -108q-385 0 -508 197q-69 109 -69 282q0 114 46 398t46 438q0 14 32 40t55 26h477q-156 -726 -156 -978q0 -241 237 -241q92 0 179 53.5t139 139.5zM1200 390q0 300 -32.5 511.5t-119.5 393.5q0 14 32 40t55 26h338 q-117 -530 -186 -904q-3 -15 -33.5 -41t-53.5 -26zM1024 1744q-36 0 -68 -24.5t-32 -60.5t22 -56.5t61 -20.5t69 26.5t30 60t-22.5 54.5t-59.5 21zM850 1832q91 66 196 66t169 -60t64 -159t-86 -175t-199.5 -76t-178 59.5t-64.5 135.5t28 127t71 82z" />
<glyph unicode="&#x16f;" horiz-adv-x="1532" d="M156 258q0 103 33.5 284t33.5 254t-47 103q0 16 29 58.5t50 42.5h391q19 -10 37 -36.5t18 -67.5t-43.5 -265.5t-43.5 -350.5q0 -64 32.5 -97.5t83.5 -33.5q-2 -13 -2 -33q0 -44 -12 -57q-49 -31 -129.5 -49.5t-154.5 -18.5q-276 0 -276 267zM911 2q-79 56 -79 137 t42.5 363t54.5 432q0 13 32.5 39.5t55.5 26.5h406q-54 -232 -87 -436t-33 -278t18.5 -109t58.5 -67q0 -14 -29 -46.5t-53 -42.5q-129 -19 -387 -19zM864 1416q-36 0 -68 -24.5t-32 -60.5t22 -56.5t61 -20.5t69 26.5t30 60t-22.5 54.5t-59.5 21zM690 1504q91 66 196 66 t169 -60t64 -159t-86 -175t-199.5 -76t-178 59.5t-64.5 135.5t28 127t71 82z" />
<glyph unicode="&#x170;" horiz-adv-x="1535" d="M1268 335q-29 -148 -140 -247q-122 -108 -338 -108q-385 0 -508 197q-69 109 -69 282q0 114 46 398t46 438q0 14 32 40t55 26h477q-156 -726 -156 -978q0 -241 237 -241q92 0 179 53.5t139 139.5zM1200 390q0 300 -32.5 511.5t-119.5 393.5q0 14 32 40t55 26h338 q-117 -530 -186 -904q-3 -15 -33.5 -41t-53.5 -26zM657 1418q-58 35 -94 83q76 145 122.5 222t114.5 166q87 -65 129.5 -107t122.5 -142q-165 -116 -395 -222zM1201 1418q-58 35 -94 83q76 145 122.5 222t114.5 166q87 -65 129.5 -107t122.5 -142q-165 -116 -395 -222z" />
<glyph unicode="&#x171;" horiz-adv-x="1532" d="M156 258q0 103 33.5 284t33.5 254t-47 103q0 16 29 58.5t50 42.5h391q19 -10 37 -36.5t18 -67.5t-43.5 -265.5t-43.5 -350.5q0 -64 32.5 -97.5t83.5 -33.5q-2 -13 -2 -33q0 -44 -12 -57q-49 -31 -129.5 -49.5t-154.5 -18.5q-276 0 -276 267zM911 2q-79 56 -79 137 t42.5 363t54.5 432q0 13 32.5 39.5t55.5 26.5h406q-54 -232 -87 -436t-33 -278t18.5 -109t58.5 -67q0 -14 -29 -46.5t-53 -42.5q-129 -19 -387 -19zM465 1144q-58 35 -94 83q52 154 94.5 243.5t110.5 178.5q145 -106 295 -277q-169 -119 -406 -228zM1009 1144q-58 35 -94 83 q52 154 94.5 243.5t110.5 178.5q145 -106 295 -277q-169 -119 -406 -228z" />
<glyph unicode="&#x172;" horiz-adv-x="1535" d="M1268 335q-29 -148 -140 -247q-98 -87 -257 -103q-67 -68 -87 -113q-17 -36 -17 -85t41.5 -80.5t117.5 -31.5t185 42q-7 -96 -23 -171q-114 -92 -303 -92q-280 0 -280 192q0 156 194 322l16 14q-323 18 -433 195q-69 109 -69 282q0 114 46 398t46 438q0 14 32 40t55 26 h477q-156 -726 -156 -978q0 -241 237 -241q92 0 179 53.5t139 139.5zM1200 390q0 300 -32.5 511.5t-119.5 393.5q0 14 32 40t55 26h338q-117 -530 -186 -904q-3 -15 -33.5 -41t-53.5 -26z" />
<glyph unicode="&#x173;" horiz-adv-x="1532" d="M1268 -454q-114 -92 -303 -92q-280 0 -280 192q0 154 168 326q19 20 42 42q-63 52 -63 125q0 81 42.5 363t54.5 432q0 13 32.5 39.5t55.5 26.5h406q-54 -232 -87 -436t-33 -278t18.5 -109t58.5 -67q0 -14 -29 -46.5t-53 -42.5q-95 -14 -259 -18q-62 -80 -79 -127 q-12 -36 -12 -85.5t41.5 -81t117 -31.5t185.5 42q-7 -94 -24 -174zM156 258q0 103 33.5 284t33.5 254t-47 103q0 16 29 58.5t50 42.5h391q19 -10 37 -36.5t18 -67.5t-43.5 -265.5t-43.5 -350.5q0 -64 32.5 -97.5t83.5 -33.5q-2 -13 -2 -33q0 -44 -12 -57 q-49 -31 -129.5 -49.5t-154.5 -18.5q-276 0 -276 267z" />
<glyph unicode="&#x174;" horiz-adv-x="2045" d="M951 1361h441q4 -39 11.5 -131t15 -169.5t18.5 -178t25 -178t31 -146.5q36 -146 91 -146q18 0 38 15q-75 -147 -166 -361q-7 -15 -36.5 -40.5t-51.5 -25.5h-293q-22 292 -82.5 661t-129.5 635q0 13 32 39t56 26zM1692 1182l-3 114q0 13 32.5 39t56.5 26h318 q-116 -195 -403 -793q-7 -16 -36 -40.5t-52 -24.5q87 314 87 679zM236 1361h442q57 -555 112.5 -752t112.5 -197q20 0 39 15q-64 -126 -166 -361q-7 -15 -36.5 -40.5t-50.5 -25.5h-294q-41 302 -110.5 672.5t-135.5 623.5q0 13 32 39t55 26zM766 1462q-33 47 -48 105 q194 129 439 255h102q186 -109 393 -255q-22 -62 -60 -105q-241 30 -411 65q-223 -39 -415 -65z" />
<glyph unicode="&#x175;" horiz-adv-x="1872" d="M182 1002h448q22 -176 59 -311q70 -256 156 -256q21 0 41 4q-31 -58 -97.5 -215t-70.5 -165.5t-33 -33.5t-52 -25h-263q-40 220 -230 783l-51 153q0 14 34 40t59 26zM890 1002h448q8 -75 16 -158t16 -142.5t18.5 -103t25.5 -82.5q29 -81 79 -81q21 0 42 4 q-31 -57 -96 -209.5t-71 -166t-35 -38.5t-51 -25h-262q-41 220 -106 501t-117 435q0 14 34 40t59 26zM1561 934q0 13 34 39.5t58 26.5h263q-27 -40 -148 -207t-160 -237q-7 -13 -38 -27.5t-55 -14.5q49 164 49 342q0 39 -3 78zM675 1240q178 204 369 355h102 q92 -94 139.5 -153.5t143.5 -201.5q-24 -54 -80 -105q-176 82 -281 138q-146 -64 -335 -138q-42 45 -58 105z" />
<glyph unicode="&#x176;" d="M771 0h-442q37 189 55 351q-83 441 -231 945q0 13 31.5 39t55.5 26h465q50 -516 204 -968q-30 -138 -49 -327q0 -13 -32.5 -39.5t-56.5 -26.5zM1010 608q-8 -17 -36.5 -42t-50.5 -25q92 341 92 674q0 54 -2 81q0 13 32.5 39t56.5 26h318q-150 -234 -410 -753zM467 1462 q-33 47 -48 105q194 129 439 255h102q186 -109 393 -255q-22 -62 -60 -105q-241 30 -411 65q-223 -39 -415 -65z" />
<glyph unicode="&#x177;" horiz-adv-x="1535" d="M178 314q0 82 29.5 235t29.5 221q0 106 -56 129q0 16 29 58.5t50 42.5h389q23 -8 39 -31.5t16 -65.5t-20 -135q-60 -281 -60 -417q0 -63 37.5 -97t90.5 -34q-8 -58 -34 -90q-108 -68 -252 -68q-288 0 -288 252zM932 942q0 12 31.5 33t56.5 21h393q-80 -382 -133 -907 q-40 -388 -242 -493q-122 -63 -322 -63q-31 0 -99 4q85 100 130.5 236.5t82 324t69.5 445t34 313.5t-1 86zM416 -438q-132 11 -211.5 61t-79.5 120.5t63 119.5q123 96 343 96q70 0 142 -12q-58 -56 -93 -122.5t-35 -113.5t9 -82q0 -15 -50.5 -41t-87.5 -26zM460 1239 q178 204 369 355h102q92 -94 139.5 -153.5t143.5 -201.5q-24 -54 -80 -105q-176 82 -281 138q-146 -64 -335 -138q-42 45 -58 105z" />
<glyph unicode="&#x178;" d="M771 0h-442q37 189 55 351q-83 441 -231 945q0 13 31.5 39t55.5 26h465q50 -516 204 -968q-30 -138 -49 -327q0 -13 -32.5 -39.5t-56.5 -26.5zM1010 608q-8 -17 -36.5 -42t-50.5 -25q92 341 92 674q0 54 -2 81q0 13 32.5 39t56.5 26h318q-150 -234 -410 -753zM432 1688 q71 81 195 81q89 0 140 -40.5t51 -113.5t-68.5 -124.5t-161.5 -51.5t-144 40t-51 103t39 106zM988 1688q72 81 178.5 81t157 -40t50.5 -113.5t-68.5 -125t-161.5 -51.5t-144 40t-51 103t39 106z" />
<glyph unicode="&#x179;" d="M165 838q30 286 72 452q8 20 35.5 45.5t45.5 25.5h378q-249 -185 -444 -456q-11 -17 -38.5 -42t-48.5 -25zM1246 527q-30 -278 -71 -455q-9 -20 -36.5 -46t-45.5 -26h-378q243 180 444 462q14 19 40.5 42t46.5 23zM57 66q450 660 733 1295h489q23 0 54 -25.5t34 -39.5 q-23 -38 -94 -154t-90 -147.5t-76.5 -127t-77 -128.5t-66.5 -114t-69 -121l-63 -113q-40 -72 -68 -126.5t-63.5 -123.5t-70.5 -141h-484q-24 0 -56 26.5t-32 39.5zM587 1460q-19 39 -31 90q282 177 507 282q36 -60 68.5 -149.5t37.5 -149.5q-229 -48 -582 -73z" />
<glyph unicode="&#x17a;" d="M136 604q21 189 60 324q8 20 35 46t45 26h324q-10 -24 -32.5 -57t-45.5 -48q-83 -53 -148 -114t-145 -154q-6 -9 -36 -16t-57 -7zM1253 431q-22 -202 -66 -359q-7 -20 -34.5 -46t-45.5 -26h-344q31 71 89.5 112.5t85.5 62t70 57.5q70 61 138 164q7 10 45 22.5t62 12.5z M65 87q351 377 669 913h487q23 0 54.5 -26t34.5 -40q-126 -137 -313.5 -394.5t-361.5 -539.5h-482q-23 0 -55.5 36t-32.5 51zM547 1145q-34 43 -49 105q235 208 461 355q40 -52 91 -167t63 -177q-225 -77 -566 -116z" />
<glyph unicode="&#x17b;" d="M165 838q30 286 72 452q8 20 35.5 45.5t45.5 25.5h378q-249 -185 -444 -456q-11 -17 -38.5 -42t-48.5 -25zM1246 527q-30 -278 -71 -455q-9 -20 -36.5 -46t-45.5 -26h-378q243 180 444 462q14 19 40.5 42t46.5 23zM57 66q450 660 733 1295h489q23 0 54 -25.5t34 -39.5 q-23 -38 -94 -154t-90 -147.5t-76.5 -127t-77 -128.5t-66.5 -114t-69 -121l-63 -113q-40 -72 -68 -126.5t-63.5 -123.5t-70.5 -141h-484q-24 0 -56 26.5t-32 39.5zM684 1741q78 88 206 88q93 0 147 -45t54 -118.5t-72.5 -130t-169 -56.5t-151 44.5t-54.5 108t40 109.5z" />
<glyph unicode="&#x17c;" d="M136 604q21 189 60 324q8 20 35 46t45 26h324q-10 -24 -32.5 -57t-45.5 -48q-83 -53 -148 -114t-145 -154q-6 -9 -36 -16t-57 -7zM1253 431q-22 -202 -66 -359q-7 -20 -34.5 -46t-45.5 -26h-344q31 71 89.5 112.5t85.5 62t70 57.5q70 61 138 164q7 10 45 22.5t62 12.5z M65 87q351 377 669 913h487q23 0 54.5 -26t34.5 -40q-126 -137 -313.5 -394.5t-361.5 -539.5h-482q-23 0 -55.5 36t-32.5 51zM629 1397q78 88 206 88q93 0 147 -45t54 -118.5t-72.5 -130t-169 -56.5t-151 44.5t-54.5 108t40 109.5z" />
<glyph unicode="&#x17d;" d="M165 838q30 286 72 452q8 20 35.5 45.5t45.5 25.5h378q-249 -185 -444 -456q-11 -17 -38.5 -42t-48.5 -25zM1246 527q-30 -278 -71 -455q-9 -20 -36.5 -46t-45.5 -26h-378q243 180 444 462q14 19 40.5 42t46.5 23zM57 66q450 660 733 1295h489q23 0 54 -25.5t34 -39.5 q-23 -38 -94 -154t-90 -147.5t-76.5 -127t-77 -128.5t-66.5 -114t-69 -121l-63 -113q-40 -72 -68 -126.5t-63.5 -123.5t-70.5 -141h-484q-24 0 -56 26.5t-32 39.5zM1274 1822q33 -47 48 -105q-194 -129 -439 -255h-102q-186 109 -393 255q22 62 60 105q223 -27 411 -65 q216 38 415 65z" />
<glyph unicode="&#x17e;" d="M136 604q21 189 60 324q8 20 35 46t45 26h324q-10 -24 -32.5 -57t-45.5 -48q-83 -53 -148 -114t-145 -154q-6 -9 -36 -16t-57 -7zM1253 431q-22 -202 -66 -359q-7 -20 -34.5 -46t-45.5 -26h-344q31 71 89.5 112.5t85.5 62t70 57.5q70 61 138 164q7 10 45 22.5t62 12.5z M65 87q351 377 669 913h487q23 0 54.5 -26t34.5 -40q-126 -137 -313.5 -394.5t-361.5 -539.5h-482q-23 0 -55.5 36t-32.5 51zM1211 1500q-178 -204 -369 -355h-102q-92 94 -139.5 153.5t-143.5 201.5q24 54 80 105q158 -74 280 -138q149 65 336 138q42 -45 58 -105z" />
<glyph unicode="&#x192;" d="M1168 1230q-145 0 -219 -64.5t-111 -222.5t-83.5 -491t-67.5 -451q-41 -228 -163.5 -325t-383.5 -97q82 281 163 943q40 326 52 408q33 230 163 347t383 117q203 0 340 -66q11 -42 14 -101q-45 3 -87 3zM908 661q9 145 45 258q86 -39 198 -59q9 -14 15.5 -48.5t6.5 -54.5 q-160 -47 -265 -96z" />
<glyph unicode="&#x1fc;" horiz-adv-x="1887" d="M1117 0h-455q42 323 42 623t-16 457q73 123 122 216q8 15 39.5 40t53.5 25h328q-27 -616 -27 -632q259 -29 335 -52q0 -55 -23 -81q-141 -8 -315 -43q-1 -43 -1 -189.5t11 -297.5q-2 -13 -36.5 -39.5t-57.5 -26.5zM243 0h-349q88 110 366.5 502.5t346.5 479.5 q3 -17 3 -37t-1 -29q-6 -60 -94 -250.5t-112 -291.5q107 -17 184 -49q-8 -62 -30 -89q-103 -9 -208 -27l-4 -32q-3 -21 -5 -61t-3.5 -51.5t-36.5 -38t-57 -26.5zM1671 755q-63 266 -110.5 354t-107 125.5t-158.5 46.5q5 48 29 80h513q-7 -97 -30 -260.5t-49 -278.5 q-4 -17 -34 -42t-53 -25zM1615 411q11 14 50 40t61 26q-34 -297 -64 -405q-9 -20 -36 -46t-44 -26h-327q120 80 203 179.5t157 231.5zM954 1460q-19 39 -31 90q282 177 507 282q36 -60 68.5 -149.5t37.5 -149.5q-229 -48 -582 -73z" />
<glyph unicode="&#x1fd;" horiz-adv-x="2103" d="M1568 1010q-124 -84 -196.5 -221t-72.5 -293t120 -254t350 -98q63 0 135 11q-47 -74 -181 -123.5t-292 -49.5t-266 40q-137 -24 -283 -24q-51 69 -51 145t45 385.5t46 411.5q0 13 33 39t55 26q97 0 223 -25q109 39 241 39q52 0 94 -9zM838 1019q-119 -88 -180.5 -239 t-61.5 -296.5t32.5 -261t87.5 -154.5q0 -15 -32 -41.5t-55 -26.5q-229 0 -367.5 115t-138.5 314q0 247 187 415q90 81 226.5 128t301.5 47zM1730 994q143 -26 220.5 -118.5t77.5 -207.5q0 -141 -123.5 -220t-318.5 -79q-61 0 -134 20q97 62 143 165t46 200t-19 170 q0 13 41.5 41t66.5 29zM1009 1145q-34 43 -49 105q235 208 461 355q40 -52 91 -167t63 -177q-225 -77 -566 -116z" />
<glyph unicode="&#x218;" d="M780 1399q-79 -67 -79 -162.5t52.5 -191t122.5 -162.5t108.5 -106.5t87 -95t76.5 -99.5q69 -107 69 -187.5t-33.5 -149.5t-95 -125.5t-157 -93.5t-210.5 -42q32 46 32 96.5t-21 103t-64 112.5q-69 97 -154.5 190t-119 133t-75.5 101q-82 118 -82 237t73 221t197.5 161 t272.5 60zM1113 795q0 97 -35 200q-69 201 -230 324q2 18 34 43t53 25q73 0 170.5 -29t154.5 -56q5 -30 5 -104.5t-14 -186t-34 -176.5q-6 -15 -42.5 -27.5t-61.5 -12.5zM634 71q-12 -68 -37 -91q-105 0 -248 27t-208 69q-1 22 -1 63q0 195 46 370q4 16 34 40.5t54 24.5 q23 -110 82.5 -221t135 -187.5t142.5 -94.5zM384 -222q0 67 81 112.5t181.5 45.5t155 -37.5t54.5 -93t-22.5 -104.5t-53.5 -83q-65 -71 -87 -79.5t-83 -8.5t-100 3q28 68 28 96.5t-24 44t-53 25t-53 30t-24 49.5z" />
<glyph unicode="&#x219;" horiz-adv-x="1195" d="M662 1028q-57 -54 -57 -114q0 -140 213 -290q96 -68 150 -116q121 -108 121 -234.5t-126.5 -204t-354.5 -77.5q26 58 26 105t-26.5 91.5t-68.5 81.5t-93 74.5t-102 76.5t-93 80q-95 93 -95 201q0 119 88 194q151 127 418 132zM817 1025q141 0 242 -55.5t101 -135.5 q0 -124 -232 -152q2 7 2 22q0 76 -48 140.5t-134 103.5q0 16 22 44t47 33zM433 -4q-50 -4 -74 -4q-145 0 -241 47.5t-96 123.5q0 153 231 193q-8 -43 -6.5 -75.5t22 -64t57.5 -56.5q66 -44 164 -81q0 -15 -18.5 -44.5t-38.5 -38.5zM246 -222q0 67 81 112.5t181.5 45.5 t155 -37.5t54.5 -93t-22.5 -104.5t-53.5 -83q-65 -71 -87.5 -79.5t-83 -8.5t-99.5 3q28 68 28 96.5t-24 44t-53 25t-53 30t-24 49.5z" />
<glyph unicode="&#x237;" horiz-adv-x="852" d="M317 993h419q-36 -157 -89 -487t-73 -505q-25 -226 -153.5 -324t-393.5 -98q53 180 116 623t87 725q0 13 32 39.5t55 26.5z" />
<glyph unicode="&#x2c6;" horiz-adv-x="1122" d="M214 1250q178 204 369 355h102q92 -94 139.5 -153.5t143.5 -201.5q-24 -54 -80 -105q-176 82 -281 138q-146 -64 -335 -138q-42 45 -58 105z" />
<glyph unicode="&#x2c7;" horiz-adv-x="1122" d="M968 1500q-178 -204 -369 -355h-102q-92 94 -139.5 153.5t-143.5 201.5q24 54 80 105q158 -74 280 -138q149 65 336 138q42 -45 58 -105z" />
<glyph unicode="&#x2d8;" horiz-adv-x="1122" d="M1001 1580q29 -40 40 -84q-83 -372 -419 -372q-156 0 -253 106t-97 290q19 36 63 85q92 -214 297 -214t369 189z" />
<glyph unicode="&#x2d9;" horiz-adv-x="1122" d="M442 1397q78 88 206 88q93 0 147 -45t54 -118.5t-72.5 -130t-169 -56.5t-151 44.5t-54.5 108t40 109.5z" />
<glyph unicode="&#x2da;" horiz-adv-x="1122" d="M595 1416q-36 0 -68 -24.5t-32 -60.5t22 -56.5t61 -20.5t69 26.5t30 60t-22.5 54.5t-59.5 21zM422 1504q90 66 195 66t169 -60t64 -159t-86 -175t-199.5 -76t-178 59.5t-64.5 135.5t28 127t72 82z" />
<glyph unicode="&#x2db;" horiz-adv-x="1122" d="M934 -454q-114 -92 -303 -92q-280 0 -280 192q0 118 69 229q58 91 148 191l110 23q-78 -136 -78 -252q0 -72 40 -115.5t124 -43.5t194 42q-7 -94 -24 -174z" />
<glyph unicode="&#x2dc;" horiz-adv-x="1122" d="M721 1154q-79 0 -180.5 60.5t-167 60.5t-132.5 -6q-6 27 -6 54t4 50q116 184 262 184q57 0 99 -20.5t79 -41.5q105 -59 170 -59t132 6q6 -30 6 -55t-3 -49q-117 -184 -263 -184z" />
<glyph unicode="&#x2dd;" horiz-adv-x="1122" d="M198 1144q-58 35 -94 83q52 154 94.5 243.5t110.5 178.5q145 -106 295 -277q-169 -119 -406 -228zM742 1144q-58 35 -94 83q52 154 94.5 243.5t110.5 178.5q145 -106 295 -277q-169 -119 -406 -228z" />
<glyph unicode="&#x394;" d="M864 1402q198 -806 327 -1263v-49q0 -25 -22.5 -56.5t-35.5 -31.5q-632 0 -1099 -15v49q0 22 18 50q332 631 630 1257q9 19 37 39t52 20h93zM217 124q477 0 838 10q-132 543 -291 1110q-329 -651 -547 -1120z" />
<glyph unicode="&#x2206;" d="M864 1402q198 -806 327 -1263v-49q0 -25 -22.5 -56.5t-35.5 -31.5q-632 0 -1099 -15v49q0 22 18 50q332 631 630 1257q9 19 37 39t52 20h93zM217 124q477 0 838 10q-132 543 -291 1110q-329 -651 -547 -1120z" />
<glyph unicode="&#x3a9;" d="M384 -2l-307 -11v59q0 24 22.5 56t35.5 32h192q-165 264 -165 504q0 169 50 314.5t135 245.5t198.5 156.5t238.5 56.5q206 0 324.5 -153.5t118.5 -412.5q0 -195 -78.5 -360t-236.5 -347q96 3 176 11v-59q0 -25 -22.5 -56.5t-35.5 -31.5q-190 0 -283 -3v49q0 24 24 57 q153 174 237 356t84 397q0 164 -73 280q-80 128 -248 128q-139 0 -251 -90.5t-172 -238.5t-60 -322q0 -243 154 -480v-59q0 -24 -22 -51t-36 -27z" />
<glyph unicode="&#x2126;" d="M384 -2l-307 -11v59q0 24 22.5 56t35.5 32h192q-165 264 -165 504q0 169 50 314.5t135 245.5t198.5 156.5t238.5 56.5q206 0 324.5 -153.5t118.5 -412.5q0 -195 -78.5 -360t-236.5 -347q96 3 176 11v-59q0 -25 -22.5 -56.5t-35.5 -31.5q-190 0 -283 -3v49q0 24 24 57 q153 174 237 356t84 397q0 164 -73 280q-80 128 -248 128q-139 0 -251 -90.5t-172 -238.5t-60 -322q0 -243 154 -480v-59q0 -24 -22 -51t-36 -27z" />
<glyph unicode="&#x3c0;" d="M1189 890l-139 6q-27 -143 -47 -343.5t-20 -290.5q0 -153 45 -153q51 0 123 26l-15 -97q-3 -14 -33.5 -36t-54.5 -22h-92q-108 0 -108 212.5t70 706.5q-88 1 -206.5 1t-215.5 -4q-46 -290 -62 -413.5t-51 -444.5q0 -13 -31.5 -35.5t-56.5 -22.5h-72q58 366 75.5 494.5 t48.5 414.5q-78 -4 -190 -14v72q0 25 22.5 56t35.5 32q246 -9 504 -9t528 24v-72q0 -25 -22.5 -56.5t-35.5 -31.5z" />
<glyph unicode="&#x1e02;" horiz-adv-x="1535" d="M103 4q132 531 195 1281q0 12 32 37.5t55 26.5q300 25 457 25q-143 -616 -197 -1315q0 -14 -32 -40.5t-56 -26.5q-174 0 -454 12zM701 -2q110 39 193 164.5t83 252.5q0 172 -158 237q-16 10 -16 33q0 54 32 63q71 19 121 126.5t50 239t-84 193.5q0 15 34 42t58 27 q318 -21 410 -200q28 -54 28 -123t-34.5 -128t-88 -98.5t-125.5 -69.5q-130 -54 -276 -69q60 4 98 4q190 0 298 -79.5t108 -226.5q0 -85 -36.5 -155t-95 -115.5t-136.5 -77.5q-143 -58 -317 -58q-76 0 -146 18zM702 1741q78 88 206 88q93 0 147 -45t54 -118.5t-72.5 -130 t-169 -56.5t-151 44.5t-54.5 108t40 109.5z" />
<glyph unicode="&#x1e03;" horiz-adv-x="1535" d="M625 68q0 -14 -32 -41t-56 -27h-412q44 188 101.5 628t79.5 690q0 13 32 39.5t55 26.5h421q-53 -220 -110 -634.5t-79 -681.5zM719 8q112 71 172.5 235t60.5 357t-108 352q0 15 31 41t54 26q133 0 242 -54t175 -158.5t66 -241.5q0 -253 -180 -405t-513 -152zM1007 1397 q78 88 206 88q93 0 147 -45t54 -118.5t-72.5 -130t-169 -56.5t-151 44.5t-54.5 108t40 109.5z" />
<glyph unicode="&#x1e0a;" horiz-adv-x="1705" d="M746 -20q88 63 163 206t118.5 325t43.5 357q0 277 -108 439q0 15 32 42t55 27q108 0 205.5 -44.5t169.5 -123.5t114.5 -195.5t42.5 -244.5t-31.5 -240t-99 -212t-164 -174.5t-236 -118t-305.5 -43.5zM597 -8q-172 0 -454 12q135 543 195 1281q0 12 32.5 37t55.5 27 q298 25 456 25q-141 -608 -197 -1315q0 -14 -32 -40.5t-56 -26.5zM740 1741q77 88 205 88q93 0 147 -45t54 -118.5t-72.5 -130t-169 -56.5t-151 44.5t-54.5 108t41 109.5z" />
<glyph unicode="&#x1e0b;" horiz-adv-x="1537" d="M834 1019q-119 -88 -178.5 -238.5t-59.5 -296.5t32.5 -261.5t87.5 -154.5q0 -15 -32 -41.5t-55 -26.5q-227 0 -366.5 119t-139.5 321q0 242 187 408q89 79 224.5 125t299.5 46zM1293 68q0 -14 -32 -41t-56 -27h-402q44 185 95 609t76 709q0 13 32 39.5t55 26.5h421 q-53 -220 -110 -634.5t-79 -681.5zM420 1397q78 88 206 88q93 0 147 -45t54 -118.5t-72.5 -130t-169 -56.5t-151 44.5t-54.5 108t40 109.5z" />
<glyph unicode="&#x1e1e;" d="M559 0h-466q134 485 198 1296q0 13 33 39t56 26h464q-77 -325 -129 -693q78 -7 197.5 -26t163.5 -33q0 -57 -21 -82q-192 -12 -368 -56q-21 -171 -41 -405q0 -13 -32 -39.5t-55 -26.5zM1148 755q-24 151 -91 301t-135 225q5 48 29 80h363q-7 -97 -30 -260.5t-49 -278.5 q-4 -17 -34 -42t-53 -25zM692 1741q78 88 206 88q93 0 147 -45t54 -118.5t-72.5 -130t-169 -56.5t-151 44.5t-54.5 108t40 109.5z" />
<glyph unicode="&#x1e1f;" horiz-adv-x="1025" d="M785 661q9 145 45 258q86 -39 198 -59q9 -14 15.5 -48.5t6.5 -54.5q-160 -47 -265 -96zM677 744q-39 -251 -75 -678q0 -13 -32 -39.5t-55 -26.5h-420q42 173 86.5 528.5t50.5 397.5q33 233 162.5 350.5t383.5 117.5q202 0 340 -66q11 -42 14 -101q-45 3 -87 3 q-114 0 -188 -41.5t-112 -145.5t-68 -299zM414 1785q78 88 206 88q93 0 147 -45t54 -118.5t-72.5 -130t-169 -56.5t-151 44.5t-54.5 108t40 109.5z" />
<glyph unicode="&#x1e40;" horiz-adv-x="1705" d="M1494 0h-441q6 246 6 501t-25 579q34 71 95 216q7 16 36 40.5t51 24.5h306q-7 -132 -7 -293q0 -504 67 -1002q0 -13 -32 -39.5t-56 -26.5zM808 52q-7 -15 -31 -33.5t-38 -18.5h-159q-42 249 -109 524t-133 453q4 23 26.5 140.5t31.5 178.5q3 14 34 39.5t53 25.5h291 q69 -400 114.5 -540.5t83.5 -224.5q-96 -287 -164 -544zM316 723q5 -250 18.5 -382t58.5 -275q0 -13 -32.5 -39.5t-56.5 -26.5h-319q99 236 155 382.5t89 275.5q0 13 32 39t55 26zM784 1741q77 88 205 88q93 0 147 -45t54 -118.5t-72.5 -130t-169 -56.5t-151 44.5t-54.5 108 t41 109.5z" />
<glyph unicode="&#x1e41;" horiz-adv-x="2215" d="M535 0h-420q108 457 147 925q0 12 32 36.5t67.5 30.5t174 16.5t215.5 10.5q-87 -443 -129 -953q0 -13 -32 -39.5t-55 -26.5zM804 0q104 601 104 740.5t-65 139.5q14 54 44 91q102 48 231.5 48t191 -63t61.5 -191q0 -67 -37 -316.5t-46 -382.5q0 -13 -32 -39.5t-56 -26.5 h-396zM1555 -2q-59 59 -59 130t38 325.5t38 314.5t-35 86t-81 26q9 58 33 91q37 18 121.5 33t152.5 15q134 0 200.5 -61t66.5 -193q0 -75 -35.5 -255t-35.5 -222t3.5 -63t6 -32.5t14 -27.5t14 -19.5t20.5 -20.5t20 -19q0 -13 -29.5 -45.5t-53.5 -43.5q-129 -19 -399 -19z M994 1397q77 88 205 88q93 0 147 -45t54 -118.5t-72.5 -130t-169 -56.5t-151 44.5t-54.5 108t41 109.5z" />
<glyph unicode="&#x1e56;" horiz-adv-x="1535" d="M805 459q102 110 159.5 248t57.5 294.5t-82 306.5q0 14 32.5 41t55.5 27q221 -15 346 -129.5t125 -292.5q0 -110 -51.5 -206t-135.5 -160q-182 -136 -415 -136q-57 0 -92 7zM675 67q0 -14 -32 -40.5t-56 -26.5h-454q137 552 195 1285q0 13 32 38.5t55 26.5q320 24 458 24 q-143 -613 -198 -1307zM750 1741q77 88 205 88q93 0 147 -45t54 -118.5t-72.5 -130t-169 -56.5t-151 44.5t-54.5 108t41 109.5z" />
<glyph unicode="&#x1e57;" horiz-adv-x="1535" d="M52 -419q154 720 203 1346q0 12 32 37.5t73 29.5t185.5 12.5t207.5 8.5q-109 -472 -193 -1369q0 -13 -32.5 -39t-54.5 -26h-421zM719 0q76 48 131 148q102 187 102 416t-108 388q0 15 31 41t54 26q133 0 242 -54t175 -158.5t66 -241.5q0 -251 -186.5 -408t-506.5 -157z M638 1397q78 88 206 88q93 0 147 -45t54 -118.5t-72.5 -130t-169 -56.5t-151 44.5t-54.5 108t40 109.5z" />
<glyph unicode="&#x1e60;" d="M780 1399q-79 -67 -79 -162.5t52.5 -191t122.5 -162.5t108.5 -106.5t87 -95t76.5 -99.5q69 -107 69 -187.5t-33.5 -149.5t-95 -125.5t-157 -93.5t-210.5 -42q32 46 32 96.5t-21 103t-64 112.5q-69 97 -154.5 190t-119 133t-75.5 101q-82 118 -82 237t73 221t197.5 161 t272.5 60zM1113 795q0 97 -35 200q-69 201 -230 324q2 18 34 43t53 25q73 0 170.5 -29t154.5 -56q5 -30 5 -104.5t-14 -186t-34 -176.5q-6 -15 -42.5 -27.5t-61.5 -12.5zM634 71q-12 -68 -37 -91q-105 0 -248 27t-208 69q-1 22 -1 63q0 195 46 370q4 16 34 40.5t54 24.5 q23 -110 82.5 -221t135 -187.5t142.5 -94.5zM660 1741q77 88 205 88q93 0 147 -45t54 -118.5t-72.5 -130t-169 -56.5t-151 44.5t-54.5 108t41 109.5z" />
<glyph unicode="&#x1e61;" horiz-adv-x="1195" d="M662 1028q-57 -54 -57 -114q0 -140 213 -290q96 -68 150 -116q121 -108 121 -234.5t-126.5 -204t-354.5 -77.5q26 58 26 105t-26.5 91.5t-68.5 81.5t-93 74.5t-102 76.5t-93 80q-95 93 -95 201q0 119 88 194q151 127 418 132zM817 1025q141 0 242 -55.5t101 -135.5 q0 -124 -232 -152q2 7 2 22q0 76 -48 140.5t-134 103.5q0 16 22 44t47 33zM433 -4q-50 -4 -74 -4q-145 0 -241 47.5t-96 123.5q0 153 231 193q-8 -43 -6.5 -75.5t22 -64t57.5 -56.5q66 -44 164 -81q0 -15 -18.5 -44.5t-38.5 -38.5zM554 1397q78 88 206 88q93 0 147 -45 t54 -118.5t-72.5 -130t-169 -56.5t-151 44.5t-54.5 108t40 109.5z" />
<glyph unicode="&#x1e6a;" horiz-adv-x="1535" d="M866 0h-466q147 531 209 1296q0 13 32.5 39t54.5 26h446q-129 -543 -188 -1295q0 -13 -32 -39.5t-56 -26.5zM1334 735q0 137 -43.5 304t-93.5 242q6 46 30 80h311q-32 -301 -85 -560q-4 -15 -48.5 -40.5t-70.5 -25.5zM116 736q8 117 38 307.5t45 246.5q7 20 34.5 45.5 t45.5 25.5h304q-102 -122 -156.5 -225t-105 -199.5t-77.5 -146.5q-6 -11 -55.5 -32.5t-72.5 -21.5zM732 1741q78 88 206 88q93 0 147 -45t54 -118.5t-72.5 -130t-169 -56.5t-151 44.5t-54.5 108t40 109.5z" />
<glyph unicode="&#x1e6b;" horiz-adv-x="1025" d="M904 61q-205 -66 -409 -66q-393 0 -393 313q0 68 29 271.5t29 281t-7 118.5q137 61 241 138t202 189q50 15 130 15q-67 -236 -106.5 -485t-39.5 -367.5t17 -171t55 -81.5q67 -51 212 -51q35 0 74 3q-9 -66 -34 -107zM729 756q9 139 45 258q98 -41 219 -58q8 -15 15 -49.5 t7 -54.5q-139 -38 -286 -96zM462 1731q78 88 206 88q93 0 147 -45t54 -118.5t-72.5 -130t-169 -56.5t-151 44.5t-54.5 108t40 109.5z" />
<glyph unicode="&#x1e80;" horiz-adv-x="2045" d="M951 1361h441q4 -39 11.5 -131t15 -169.5t18.5 -178t25 -178t31 -146.5q36 -146 91 -146q18 0 38 15q-75 -147 -166 -361q-7 -15 -36.5 -40.5t-51.5 -25.5h-293q-22 292 -82.5 661t-129.5 635q0 13 32 39t56 26zM1692 1182l-3 114q0 13 32.5 39t56.5 26h318 q-116 -195 -403 -793q-7 -16 -36 -40.5t-52 -24.5q87 314 87 679zM236 1361h442q57 -555 112.5 -752t112.5 -197q20 0 39 15q-64 -126 -166 -361q-7 -15 -36.5 -40.5t-50.5 -25.5h-294q-41 302 -110.5 672.5t-135.5 623.5q0 13 32 39t55 26zM1453 1460q-353 25 -582 73 q5 60 37.5 149.5t68.5 149.5q225 -105 507 -282q-12 -51 -31 -90z" />
<glyph unicode="&#x1e81;" horiz-adv-x="1872" d="M182 1002h448q22 -176 59 -311q70 -256 156 -256q21 0 41 4q-31 -58 -97.5 -215t-70.5 -165.5t-33 -33.5t-52 -25h-263q-40 220 -230 783l-51 153q0 14 34 40t59 26zM890 1002h448q8 -75 16 -158t16 -142.5t18.5 -103t25.5 -82.5q29 -81 79 -81q21 0 42 4 q-31 -57 -96 -209.5t-71 -166t-35 -38.5t-51 -25h-262q-41 220 -106 501t-117 435q0 14 34 40t59 26zM1344 1145q-341 39 -566 116q12 62 63 177t91 167q226 -147 461 -355q-15 -62 -49 -105zM1561 934q0 13 34 39.5t58 26.5h263q-27 -40 -148 -207t-160 -237 q-7 -13 -38 -27.5t-55 -14.5q49 164 49 342q0 39 -3 78z" />
<glyph unicode="&#x1e82;" horiz-adv-x="2045" d="M951 1361h441q4 -39 11.5 -131t15 -169.5t18.5 -178t25 -178t31 -146.5q36 -146 91 -146q18 0 38 15q-75 -147 -166 -361q-7 -15 -36.5 -40.5t-51.5 -25.5h-293q-22 292 -82.5 661t-129.5 635q0 13 32 39t56 26zM1692 1182l-3 114q0 13 32.5 39t56.5 26h318 q-116 -195 -403 -793q-7 -16 -36 -40.5t-52 -24.5q87 314 87 679zM236 1361h442q57 -555 112.5 -752t112.5 -197q20 0 39 15q-64 -126 -166 -361q-7 -15 -36.5 -40.5t-50.5 -25.5h-294q-41 302 -110.5 672.5t-135.5 623.5q0 13 32 39t55 26zM910 1460q-19 39 -31 90 q282 177 507 282q36 -60 68.5 -149.5t37.5 -149.5q-229 -48 -582 -73z" />
<glyph unicode="&#x1e83;" horiz-adv-x="1872" d="M182 1002h448q22 -176 59 -311q70 -256 156 -256q21 0 41 4q-31 -58 -97.5 -215t-70.5 -165.5t-33 -33.5t-52 -25h-263q-40 220 -230 783l-51 153q0 14 34 40t59 26zM890 1002h448q8 -75 16 -158t16 -142.5t18.5 -103t25.5 -82.5q29 -81 79 -81q21 0 42 4 q-31 -57 -96 -209.5t-71 -166t-35 -38.5t-51 -25h-262q-41 220 -106 501t-117 435q0 14 34 40t59 26zM803 1145q-34 43 -49 105q235 208 461 355q40 -52 91 -167t63 -177q-225 -77 -566 -116zM1561 934q0 13 34 39.5t58 26.5h263q-27 -40 -148 -207t-160 -237 q-7 -13 -38 -27.5t-55 -14.5q49 164 49 342q0 39 -3 78z" />
<glyph unicode="&#x1e84;" horiz-adv-x="2045" d="M951 1361h441q4 -39 11.5 -131t15 -169.5t18.5 -178t25 -178t31 -146.5q36 -146 91 -146q18 0 38 15q-75 -147 -166 -361q-7 -15 -36.5 -40.5t-51.5 -25.5h-293q-22 292 -82.5 661t-129.5 635q0 13 32 39t56 26zM1692 1182l-3 114q0 13 32.5 39t56.5 26h318 q-116 -195 -403 -793q-7 -16 -36 -40.5t-52 -24.5q87 314 87 679zM236 1361h442q57 -555 112.5 -752t112.5 -197q20 0 39 15q-64 -126 -166 -361q-7 -15 -36.5 -40.5t-50.5 -25.5h-294q-41 302 -110.5 672.5t-135.5 623.5q0 13 32 39t55 26zM730 1688q72 81 196 81 q89 0 140 -40.5t51 -113.5t-68.5 -124.5t-161.5 -51.5t-144 40t-51 103t38 106zM1287 1688q72 81 178.5 81t157 -40t50.5 -113.5t-68.5 -125t-161.5 -51.5t-144 40t-51 103t39 106z" />
<glyph unicode="&#x1e85;" horiz-adv-x="1872" d="M182 1002h448q22 -176 59 -311q70 -256 156 -256q21 0 41 4q-31 -58 -97.5 -215t-70.5 -165.5t-33 -33.5t-52 -25h-263q-40 220 -230 783l-51 153q0 14 34 40t59 26zM890 1002h448q8 -75 16 -158t16 -142.5t18.5 -103t25.5 -82.5q29 -81 79 -81q21 0 42 4 q-31 -57 -96 -209.5t-71 -166t-35 -38.5t-51 -25h-262q-41 220 -106 501t-117 435q0 14 34 40t59 26zM1179 1397q75 88 179.5 88t155.5 -44.5t51 -118.5t-69 -130.5t-161 -56.5t-143.5 44.5t-51.5 108t39 109.5zM622 1397q74 88 196 88q88 0 139.5 -44.5t51.5 -118.5 t-69 -130.5t-161 -56.5t-143.5 44.5t-51.5 108t38 109.5zM1561 934q0 13 34 39.5t58 26.5h263q-27 -40 -148 -207t-160 -237q-7 -13 -38 -27.5t-55 -14.5q49 164 49 342q0 39 -3 78z" />
<glyph unicode="&#x1ef2;" d="M771 0h-442q37 189 55 351q-83 441 -231 945q0 13 31.5 39t55.5 26h465q50 -516 204 -968q-30 -138 -49 -327q0 -13 -32.5 -39.5t-56.5 -26.5zM1010 608q-8 -17 -36.5 -42t-50.5 -25q92 341 92 674q0 54 -2 81q0 13 32.5 39t56.5 26h318q-150 -234 -410 -753zM1154 1460 q-353 25 -582 73q5 60 37.5 149.5t68.5 149.5q225 -105 507 -282q-12 -51 -31 -90z" />
<glyph unicode="&#x1ef3;" horiz-adv-x="1535" d="M178 314q0 82 29.5 235t29.5 221q0 106 -56 129q0 16 29 58.5t50 42.5h389q23 -8 39 -31.5t16 -65.5t-20 -135q-60 -281 -60 -417q0 -63 37.5 -97t90.5 -34q-8 -58 -34 -90q-108 -68 -252 -68q-288 0 -288 252zM932 942q0 12 31.5 33t56.5 21h393q-80 -382 -133 -907 q-40 -388 -242 -493q-122 -63 -322 -63q-31 0 -99 4q85 100 130.5 236.5t82 324t69.5 445t34 313.5t-1 86zM416 -438q-132 11 -211.5 61t-79.5 120.5t63 119.5q123 96 343 96q70 0 142 -12q-58 -56 -93 -122.5t-35 -113.5t9 -82q0 -15 -50.5 -41t-87.5 -26zM1129 1145 q-341 39 -566 116q12 62 63 177t91 167q226 -147 461 -355q-15 -62 -49 -105z" />
<glyph unicode="&#x2013;" horiz-adv-x="1241" d="M1014 442q-638 0 -872 -15v69q0 25 11 56t18 32q663 0 872 15v-69q0 -25 -11 -56.5t-18 -31.5z" />
<glyph unicode="&#x2014;" horiz-adv-x="2069" d="M1860 442q-1276 0 -1743 -15v69q0 25 22.5 56t35.5 32q1325 0 1743 15v-69q0 -25 -22.5 -56.5t-35.5 -31.5z" />
<glyph unicode="&#x2018;" horiz-adv-x="453" d="M434 1381q-13 -67 -39 -218l95 -29q-13 -76 -20 -135q0 -14 -32 -40.5t-55 -26.5h-267q16 71 25.5 114.5t22.5 91.5t21.5 74.5t22 56.5t23.5 44t27.5 29.5t32 20.5t39.5 11q33 7 104 7z" />
<glyph unicode="&#x2019;" horiz-adv-x="453" d="M192 932q13 67 39 218l-95 29q13 76 20 135q0 14 32 40.5t55 26.5h267q-16 -71 -25.5 -114.5t-22.5 -91.5t-21.5 -74.5t-22 -56.5t-23.5 -44t-27.5 -29.5t-32 -20.5t-39.5 -10q-33 -8 -104 -8z" />
<glyph unicode="&#x201a;" horiz-adv-x="453" d="M11 -232q13 67 39 218l-95 29q13 76 20 135q0 14 32 40.5t55 26.5h267q-16 -71 -25.5 -114.5t-22.5 -91.5t-21.5 -74.5t-22 -56.5t-23.5 -44t-27.5 -29.5t-32 -20.5t-38.5 -10q-34 -8 -105 -8z" />
<glyph unicode="&#x201c;" horiz-adv-x="853" d="M424 1381q-13 -67 -39 -218l95 -29q-13 -76 -20 -135q0 -14 -32 -40.5t-55 -26.5h-267q16 71 25.5 114.5t22.5 91.5t21.5 74.5t22 56.5t23.5 44t27.5 29.5t32 20.5t39.5 11q33 7 104 7zM824 1381q-13 -67 -39 -218l95 -29q-13 -76 -20 -135q0 -14 -32 -40.5t-55 -26.5 h-267q16 71 25.5 114.5t22.5 91.5t21.5 74.5t22 56.5t23.5 44t27.5 29.5t32 20.5t39.5 11q33 7 104 7z" />
<glyph unicode="&#x201d;" horiz-adv-x="853" d="M192 932q13 67 39 218l-95 29q13 76 20 135q0 14 32 40.5t55 26.5h267q-16 -71 -25.5 -114.5t-22.5 -91.5t-21.5 -74.5t-22 -56.5t-23.5 -44t-27.5 -29.5t-32 -20.5t-39.5 -10q-33 -8 -104 -8zM592 932q13 67 39 218l-95 29q13 76 20 135q0 14 32 40.5t55 26.5h267 q-16 -71 -25.5 -114.5t-22.5 -91.5t-21.5 -74.5t-22 -56.5t-23.5 -44t-27.5 -29.5t-32 -20.5t-39.5 -10q-33 -8 -104 -8z" />
<glyph unicode="&#x201e;" horiz-adv-x="853" d="M26 -232q13 67 39 218l-95 29q13 76 20 135q0 14 32 40.5t55 26.5h267q-16 -71 -25.5 -114.5t-22.5 -91.5t-21.5 -74.5t-22 -56.5t-23.5 -44t-27.5 -29.5t-32 -20.5t-39.5 -10q-33 -8 -104 -8zM426 -232q13 67 39 218l-95 29q13 76 20 135q0 14 32 40.5t55 26.5h267 q-16 -71 -25.5 -114.5t-22.5 -91.5t-21.5 -74.5t-22 -56.5t-23.5 -44t-27.5 -29.5t-32 -20.5t-39.5 -10q-33 -8 -104 -8z" />
<glyph unicode="&#x2020;" horiz-adv-x="1073" d="M1001 842q-165 0 -365 -2q-106 -749 -155 -1201q0 -13 -31.5 -35.5t-56.5 -22.5h-72q87 555 179 1257q-47 -1 -391 -11v59q0 25 22.5 56t35.5 32q253 0 350 1q29 222 53 436q0 13 31.5 35.5t56.5 22.5h72q-28 -173 -74 -492q117 2 403 12v-59q0 -25 -22.5 -56.5 t-35.5 -31.5z" />
<glyph unicode="&#x2021;" horiz-adv-x="1073" d="M1001 842q-165 0 -365 -2q-1 -8 -70 -511q120 2 404 12v-59q0 -25 -22.5 -56.5t-35.5 -31.5q-164 0 -364 -2q-37 -283 -67 -553q0 -13 -31.5 -35.5t-56.5 -22.5h-72q32 204 90 609q-47 -1 -391 -11v59q0 25 22.5 56t35.5 32q255 0 353 1q12 84 69 511q-47 -1 -391 -11v59 q0 25 22.5 56t35.5 32q253 0 350 1q29 222 53 436q0 13 31.5 35.5t56.5 22.5h72q-28 -173 -74 -492q117 2 403 12v-59q0 -25 -22.5 -56.5t-35.5 -31.5z" />
<glyph unicode="&#x2022;" horiz-adv-x="844" d="M163 702q113 112 299 112q135 0 214 -57.5t79 -151t-106 -165t-246.5 -71.5t-219.5 56t-79 137t59 140z" />
<glyph unicode="&#x2026;" horiz-adv-x="2046" d="M78 219q84 84 224 84q101 0 160.5 -43t59.5 -113.5t-79.5 -124t-185.5 -53.5t-165 42t-59 103t45 105zM760 219q84 84 224 84q101 0 160.5 -43t59.5 -113.5t-79.5 -124t-185.5 -53.5t-165 42t-59 103t45 105zM1442 219q84 84 224 84q101 0 160.5 -43t59.5 -113.5 t-79.5 -124t-185.5 -53.5t-165 42t-59 103t45 105z" />
<glyph unicode="&#x2030;" horiz-adv-x="1763" d="M1420 -10q-86 0 -142 66.5t-56 159.5t35 170t101.5 126t150.5 49t140 -66.5t56 -183.5t-80.5 -219t-204.5 -102zM1477 434q-52 0 -92.5 -57.5t-40.5 -123t27.5 -101t79 -35.5t92 57t40.5 122.5t-27 101.5t-79 36zM228 41q-14 -18 -39.5 -38t-48.5 -20h-112 q546 705 989 1321q14 19 39.5 38.5t48.5 19.5h112q-438 -572 -989 -1321zM310 790q-86 0 -142 66.5t-56 159.5t35 170t101.5 126t150.5 49t140 -66.5t56 -183.5t-80.5 -219t-204.5 -102zM367 1234q-52 0 -92.5 -57.5t-40.5 -123t27.5 -101t79 -35.5t92 57t40.5 122.5 t-27 101.5t-79 36zM840 -10q-86 0 -142 66.5t-56 159.5t35 170t101.5 126t150.5 49t140 -66.5t56 -183.5t-80.5 -219t-204.5 -102zM897 434q-52 0 -92.5 -57.5t-40.5 -123t27.5 -101t79 -35.5t92 57t40.5 122.5t-27 101.5t-79 36z" />
<glyph unicode="&#x2039;" horiz-adv-x="844" d="M771 970v-127q0 -21 -23 -47t-109 -95t-281 -246q175 -196 313 -341q0 -20 -27.5 -76.5t-38.5 -61.5q-220 188 -511 417q8 90 24 152q345 220 653 425z" />
<glyph unicode="&#x203a;" horiz-adv-x="844" d="M54 -24v127q0 32 66 88q144 116 346 290q-140 162 -312 351q0 20 27.5 76.5t38.5 61.5q239 -209 511 -427q-8 -90 -24 -152q-351 -214 -653 -415z" />
<glyph unicode="&#x2044;" horiz-adv-x="982" d="M30 5q-47 -58 -88 -58h-122q600 703 1146 1395q44 58 88 58h122q-510 -604 -1146 -1395z" />
<glyph unicode="&#x20ac;" d="M971 1386q-113 -98 -189 -265t-105 -366q231 36 319 58v-41q0 -24 -21.5 -55.5t-34.5 -31.5q-95 -7 -274 -26q-6 -70 -6 -106q201 27 296 51v-41q0 -24 -21.5 -55.5t-34.5 -31.5q-89 -4 -239 -18q12 -248 93 -410q0 -15 -32 -41.5t-56 -26.5q-178 32 -300 151.5 t-159 306.5q-91 -18 -195 -43v32q0 25 22.5 56.5t35.5 31.5q80 6 125 12q-2 42 -2 66.5t1 37.5q-70 -14 -162 -36v32q0 25 22.5 56.5t35.5 31.5l112 10q46 347 286 529q177 133 445 133q24 0 38 -1zM1119 1361q134 -16 274 -72q-2 -58 -25 -216t-45 -251q-4 -16 -45 -41.5 t-65 -25.5q-30 199 -68.5 320t-113.5 220q2 18 34 42t54 24zM1306 505q-19 -207 -63 -414q-125 -111 -427 -111q125 107 189 198q84 121 171 270q22 22 63.5 39.5t66.5 17.5z" />
<glyph unicode="&#x2122;" horiz-adv-x="2177" d="M603 610h-303q97 298 136 715q0 7 21 21.5t35 14.5h290q-83 -297 -122 -715q0 -7 -21 -21.5t-36 -14.5zM907 1016q0 75 -28.5 167t-60.5 134q3 25 19 44h202q-20 -162 -55 -309q-2 -8 -31.5 -22t-45.5 -14zM116 1016q5 64 24.5 169.5t27 126.5t25 35t29.5 14h197 q-59 -59 -98 -119.5t-72 -115t-50 -80.5q-4 -6 -36 -18t-47 -12zM2007 610h-286q3 102 3 263t-16 333q8 14 62 119q4 8 23 22t33 14h199q-5 -87 -5 -162q0 -271 44 -553q0 -7 -20.5 -21.5t-36.5 -14.5zM1539 1361q56 -283 129 -422q-62 -157 -106 -300q-5 -9 -20.5 -19 t-24.5 -10h-103q-68 333 -158 539q4 19 12 55q20 79 26 121q2 8 22 22t35 14h188zM1242 1009q3 -138 12 -210.5t38 -152.5q0 -7 -21.5 -21.5t-36.5 -14.5h-207q126 255 159 363q0 7 20.5 21.5t35.5 14.5z" />
<glyph unicode="&#x2202;" d="M990 890q0 401 -269 401q-109 0 -237 -58q2 15 29 66.5t41 60.5q79 42 200 42q177 0 272 -129.5t95 -369.5q0 -755 -357 -905q-79 -33 -171.5 -33t-160.5 27.5t-108 75.5q-81 97 -81 247q0 209 126 361q60 73 152.5 116t202.5 43t263 -46q3 51 3 101zM864 268 q89 184 116 437q-109 34 -198 34t-161 -24.5t-117 -65t-74 -96.5q-53 -100 -53 -224t53 -193.5t152 -69.5t167.5 54.5t114.5 147.5z" />
<glyph unicode="&#x220f;" d="M1032 38q0 -13 -31.5 -35.5t-56.5 -22.5h-72q90 680 145 1284q-103 1 -223 1t-277 -5q-86 -633 -135 -1222q0 -13 -31.5 -35.5t-56.5 -22.5h-72q86 648 144 1274q-134 -8 -192 -14v62q0 25 22.5 56t35.5 32q246 -9 554 -9t578 24v-62q0 -25 -22.5 -56.5t-35.5 -31.5 q-88 4 -139 5q-86 -633 -135 -1222z" />
<glyph unicode="&#x2211;" d="M1107 1277q-353 0 -614 -9q123 -165 199 -256q218 -264 270 -327h1q-189 -177 -294 -282t-280 -289q361 0 705 15v-39q0 -25 -22.5 -56.5t-35.5 -31.5q-573 0 -889 -15v39q0 34 58 88q324 316 580 588q-78 98 -228 274.5t-239 285.5v39q0 25 22.5 56t35.5 32 q400 0 789 15v-39q0 -25 -22.5 -56.5t-35.5 -31.5z" />
<glyph unicode="&#x2212;" d="M1099 447q-425 0 -892 -15v64q0 25 22.5 56t35.5 32q474 0 892 15v-64q0 -25 -22.5 -56.5t-35.5 -31.5z" />
<glyph unicode="&#x221a;" d="M691 -219q-6 -18 -34.5 -38t-53.5 -20h-82q-44 364 -103 777q-80 -16 -233 -64v72q0 24 22 54.5t36 33.5q134 28 280 83q48 -468 94 -759q232 677 453 1433q0 13 31.5 35.5t56.5 22.5h82q-265 -765 -549 -1630z" />
<glyph unicode="&#x221e;" d="M1004 852q124 0 189.5 -90t65.5 -228q0 -200 -93.5 -327.5t-241.5 -127.5q-102 0 -168 65q-57 56 -146 209q-156 -228 -322 -228q-117 0 -177.5 79.5t-60.5 223.5t98.5 253t225.5 109q95 0 150.5 -44.5t129.5 -175.5q110 210 235 260q53 22 115 22zM935 226 q82 0 141.5 76t59.5 195q0 80 -26 128q-49 87 -134 87t-145.5 -55t-132.5 -166q87 -155 136.5 -210t100.5 -55zM248 618q-81 -64 -81 -186q0 -158 151 -158q113 0 248 155q-80 137 -119 180.5t-97.5 43.5t-101.5 -35z" />
<glyph unicode="&#x222b;" d="M802 1168q-85 -578 -178 -1355q-13 -106 -60.5 -149t-116 -43t-129.5 32.5t-102 87.5q0 13 31.5 35.5t56.5 22.5q77 -49 112 -49q68 0 86 113q87 553 176 1349q22 198 189 198q58 0 119 -32.5t102 -87.5q0 -13 -31.5 -35.5t-56.5 -22.5q-77 49 -112 49q-69 0 -86 -113z " />
<glyph unicode="&#x2248;" d="M1260 753q-164 -65 -299.5 -65t-302 26.5t-279 26.5t-206.5 -26q0 63 8 94q167 65 294 65t281 -26.5t286 -26.5t226 26q0 -63 -8 -94zM1202 351q-164 -65 -299.5 -65t-302 26.5t-279 26.5t-206.5 -26q0 63 8 94q167 65 294 65t281.5 -26.5t286 -26.5t225.5 26 q0 -63 -8 -94z" />
<glyph unicode="&#x2260;" d="M1130 707q-161 0 -328 -2q-77 -164 -147 -318q240 4 463 12v-64q0 -25 -22.5 -56.5t-35.5 -31.5q-228 0 -469 -4q-37 -85 -71 -166q0 -13 -31.5 -35.5t-56.5 -22.5h-82q54 113 105 221q-141 -4 -287 -8v64q0 25 22.5 56t35.5 32q152 0 298 1q77 166 146 318 q-211 -4 -432 -11v64q0 25 22.5 56t35.5 32q226 0 439 3q33 74 64 145q0 13 31.5 35.5t56.5 22.5h82q-50 -102 -98 -200q162 3 317 9v-64q0 -25 -22.5 -56.5t-35.5 -31.5z" />
<glyph unicode="&#x2264;" d="M1003 227q-361 205 -761 392q0 97 14 162q271 108 445 185t458 215v-107q0 -22 -25.5 -52t-40.5 -36q-362 -146 -675 -286q305 -176 651 -330v-55q0 -22 -25.5 -51.5t-40.5 -36.5zM1054 11q-425 0 -892 -15v64q0 25 22.5 56t35.5 32q474 0 892 15v-64q0 -25 -22.5 -56.5 t-35.5 -31.5z" />
<glyph unicode="&#x2265;" d="M389 1181q361 -205 761 -392q0 -97 -14 -162q-271 -108 -445 -185t-458 -215v107q0 22 25.5 52t40.5 36q362 146 675 286q-305 176 -651 330v55q0 22 25.5 51.5t40.5 36.5zM1042 11q-425 0 -892 -15v64q0 25 22.5 56t35.5 32q474 0 892 15v-64q0 -25 -22.5 -56.5 t-35.5 -31.5z" />
<glyph unicode="&#x25ca;" d="M227 691q236 321 470 672q12 18 39 38.5t50 20.5h93q175 -455 319 -766q-205 -271 -454 -650q-11 -16 -38.5 -37.5t-50.5 -21.5h-93q-196 469 -335 744zM784 1289q-221 -312 -401 -601q128 -321 270 -609q201 294 387 601q-116 302 -256 609z" />
<glyph unicode="&#xe000;" horiz-adv-x="1000" d="M0 1000h1000v-1000h-1000v1000z" />
<glyph unicode="&#xfb00;" horiz-adv-x="2050" d="M785 661q9 145 45 258q86 -39 198 -59q9 -14 15.5 -48.5t6.5 -54.5q-160 -47 -265 -96zM677 744q-39 -251 -75 -678q0 -13 -32 -39.5t-55 -26.5h-420q42 173 86.5 528.5t50.5 397.5q33 233 162.5 350.5t383.5 117.5q202 0 340 -66q11 -42 14 -101q-45 3 -87 3 q-114 0 -188 -41.5t-112 -145.5t-68 -299zM1810 661q9 145 45 258q86 -39 198 -59q9 -14 15.5 -48.5t6.5 -54.5q-160 -47 -265 -96zM1702 744q-39 -251 -75 -678q0 -13 -32 -39.5t-55 -26.5h-420q42 173 86.5 528.5t50.5 397.5q33 233 162.5 350.5t383.5 117.5 q203 0 340 -66q11 -42 14 -101q-45 3 -87 3q-114 0 -188 -41.5t-112 -145.5t-68 -299z" />
<glyph unicode="&#xfb01;" horiz-adv-x="1877" d="M785 661q9 145 45 258q86 -39 198 -59q9 -14 15.5 -48.5t6.5 -54.5q-160 -47 -265 -96zM677 744q-39 -251 -75 -678q0 -13 -32 -39.5t-55 -26.5h-420q42 173 86.5 528.5t50.5 397.5q33 233 162.5 350.5t383.5 117.5q202 0 340 -66q11 -42 14 -101q-45 3 -87 3 q-114 0 -188 -41.5t-112 -145.5t-68 -299zM1122 0q87 368 133 928q0 13 33 39t55 26h419q-87 -374 -133 -927q0 -13 -32 -39.5t-55 -26.5h-420zM1706 1128h-418q19 77 25 151q0 14 32 40.5t55 26.5h420q-13 -47 -27 -152q0 -14 -31.5 -40t-55.5 -26z" />
<glyph unicode="&#xfb02;" horiz-adv-x="1877" d="M785 661q9 145 45 258q86 -39 198 -59q9 -14 15.5 -48.5t6.5 -54.5q-160 -47 -265 -96zM677 744q-39 -251 -75 -678q0 -13 -32 -39.5t-55 -26.5h-420q42 173 86.5 528.5t50.5 397.5q33 233 162.5 350.5t383.5 117.5q202 0 340 -66q11 -42 14 -101q-45 3 -87 3 q-114 0 -188 -41.5t-112 -145.5t-68 -299zM1627 68q0 -14 -32 -41t-56 -27h-412q44 188 101.5 628t79.5 690q0 13 32 39.5t55 26.5h421q-53 -220 -110 -634.5t-79 -681.5z" />
<glyph horiz-adv-x="0" />
<glyph horiz-adv-x="511" />
<glyph horiz-adv-x="684" d="M190 -222q0 67 81 112.5t181.5 45.5t155 -37.5t54.5 -93t-22.5 -104.5t-53.5 -83q-65 -71 -87 -79.5t-83 -8.5t-100 3q28 68 28 96.5t-24 44t-53 25t-53 30t-24 49.5z" />
<glyph horiz-adv-x="1269" d="M1045 1460q-353 25 -582 73q5 60 37.5 149.5t68.5 149.5q225 -105 507 -282q-12 -51 -31 -90z" />
<glyph horiz-adv-x="684" d="M494 1460q-19 39 -31 90q282 177 507 282q36 -60 68.5 -149.5t37.5 -149.5q-229 -48 -582 -73z" />
<glyph horiz-adv-x="684" d="M-77 1462q-33 47 -48 105q194 129 439 255h102q186 -109 393 -255q-22 -62 -60 -105q-241 30 -411 65q-223 -39 -415 -65z" />
<glyph horiz-adv-x="684" d="M761 1822q33 -47 48 -105q-194 -129 -439 -255h-102q-186 109 -393 255q22 62 60 105q223 -27 411 -65q216 38 415 65z" />
<glyph horiz-adv-x="684" d="M-110 1688q72 81 196 81q89 0 140 -40.5t51 -113.5t-68.5 -124.5t-161.5 -51.5t-144 40t-51 103t38 106zM447 1688q72 81 178.5 81t157 -40t50.5 -113.5t-68.5 -125t-161.5 -51.5t-144 40t-51 103t39 106z" />
<glyph horiz-adv-x="684" d="M339 1589q-36 0 -68 -24.5t-32 -60.5t22 -56.5t61 -20.5t69 26.5t30 60t-22.5 54.5t-59.5 21zM166 1678q90 65 195 65t169 -60t64 -159t-86 -175t-199.5 -76t-178 59.5t-64.5 135.5t28 127t72 83z" />
<glyph horiz-adv-x="684" d="M-68 1503q-6 27 -6 54t4 50q60 94 132 121q59 23 126 23t210.5 -35.5t205 -35.5t128.5 6q6 -30 6 -55t-3 -49q-57 -89 -120 -116.5t-136 -27.5t-216.5 35.5t-203.5 35.5t-127 -6z" />
<glyph horiz-adv-x="684" d="M190 1741q77 88 205 88q93 0 147 -45t54 -118.5t-72.5 -130t-169 -56.5t-151 44.5t-54.5 108t41 109.5z" />
<glyph horiz-adv-x="684" d="M-46 1418q-58 35 -94 83q76 145 122.5 222t114.5 166q87 -65 129.5 -107t122.5 -142q-165 -116 -395 -222zM498 1418q-58 35 -94 83q76 145 122.5 222t114.5 166q87 -65 129.5 -107t122.5 -142q-165 -116 -395 -222z" />
<glyph horiz-adv-x="684" d="M727 1854q29 -40 40 -84q-41 -153 -165.5 -236.5t-272.5 -83.5q-150 0 -257 86q-114 90 -114 258q19 36 63 85q96 -148 321 -148q101 0 204.5 33t180.5 90z" />
<glyph horiz-adv-x="684" d="M604 1511q-355 0 -592 -15l30 219q4 25 25 56t33 32q388 0 592 15l-30 -219q-4 -26 -25 -57t-33 -31z" />
<glyph horiz-adv-x="684" d="M190 -222q0 67 81 112.5t181.5 45.5t155 -37.5t54.5 -93t-22.5 -104.5t-53.5 -83q-65 -71 -87 -79.5t-83 -8.5t-100 3q28 68 28 96.5t-24 44t-53 25t-53 30t-24 49.5z" />
<glyph horiz-adv-x="1122" d="M450 -299q95 -46 195 -46t100 70t-121 70q-11 0 -56 -3q-23 29 -33 76q47 124 123 268l75 -32l-74 -206q60 22 144.5 22t152 -45.5t67.5 -139t-68 -148t-218 -54.5t-284 67q-4 24 -4 56.5t1 44.5z" />
</font>
</defs>
</svg>
